img image001 image001 image001 image001 image001 image001 image001 image001 image001 image001 image001 image001 image001 image001 image001

Planets Sun Sun Sun
Статистика раздачи
Автор: Снежана | Размер: 5.99 ГБ | Добавлен: 08 ноя 2019
Раздают: 66    Качают: 15
Скачать торрент
Скачать торрент
Описание торрента

СообщениеДобавлено: 08 ноя 2019 

Расплата / Месть (1-8 серии из 8)

Перевод: Не требуется, cубтитры: отсутствуют
Формат: HDTVRip, MKV, H.264, AC3
Страна: Россия
Режиссер: Дарья Полторацкая
Жанр: драма, мелодрама, детектив
Всего серий: 8
Продолжительность: 8 х ~ 00:47:24
Год выпуска: 2019

В ролях: Кирилл Кяро, Светлана Смирнова-Марцинкевич, Никита Панфилов, Татьяна Рыбинец, Никита Зверев, Владимир Стержаков, Валерий Афанасьев, Дмитрий Кривощапов, Нелли Уварова, Олег Метелев, Вячеслав Гасай, Михаил Кремер, Анна Карышева

Описание: Никита Долин отправляется на горнолыжный курорт. В гостинице он знакомится с соседями – четой Морозовых. Анна и Андрей Морозовы – обычная, на первый взгляд, пара с заурядными семейными проблемами. Но события приобретают неожиданный оборот. Вначале Анна совершает попытку самоубийства, и Никите приходится спасать ей жизнь. А вскоре происходит несчастный случай с Андреем – по странному стечению обстоятельств он слетает с трассы и оказывается в больнице. Трагические события и потрясения сближают Анну и Никиту. Случайное знакомство перерастает в курортный роман. Но было ли оно случайным? С каждым шагом простая история всё более запутывается, превращаясь в сложную паутину из тайн, игр и лжи…

Рейтинг и доп. информация:


Видео: 1024x576, (16:9), 25 fps, AVC MPEG-4 (x264), ~ 2000 kbps , 0.136 bit/pixel
Аудио: 48 kHz, АС3, 2/0 (L,R), ~192 kbps avg
Общее
Уникальный идентификатор : 254346257866034161705481009797446112243 (0xBF594EB3843478B3B8E30D342D4613F3)
Полное имя : C:\Расплата.(2019).HDTVRip.(AVC).Files-x\01.Расплата.(2018).HDTVRip.(AVC).by.Серый1779.Files-x.mkv
Формат : Matroska
Версия формата : Version 2
Размер файла : 744 Мбайт
Продолжительность : 47 м. 24 с.
Общий поток : 2193 Кбит/сек
Дата кодирования : UTC 2019-11-05 22:28:48
Программа кодирования : mkvmerge v7.8.0 (''River Man'') 32bit built on Apr 3 2015 12:11:22
Библиотека кодирования : libebml v1.3.1 + libmatroska v1.4.2

Видео
Идентификатор : 1
Формат : AVC
Формат/Информация : Advanced Video Codec
Профиль формата :
Настройки формата : CABAC / 9 Ref Frames
Параметр CABAC формата : Да
Параметр RefFrames формата : 9 кадров
Идентификатор кодека : V_MPEG4/ISO/AVC
Продолжительность : 47 м. 24 с.
Битрейт : 2000 Кбит/сек
Ширина : 1024 пикселя
Высота : 576 пикселей
Соотношение сторон : 16:9
Режим частоты кадров : Постоянный
Частота кадров : 25,000 кадров/сек
Цветовое пространство : YUV
Субдискретизация насыщенности : 4:2:0
Битовая глубина : 8 бит
Тип развёртки : Прогрессивная
Бит/(Пиксели*Кадры) : 0.136
Размер потока : 664 Мбайт (89%)
Библиотека кодирования : x264 core 146 r2538 121396c
Настройки программы : cabac=1 / ref=9 / deblock=1:-2:-1 / analyse=0x3:0x133 / me=umh / subme=9 / psy=1 / psy_rd=1.00:0.15 / mixed_ref=1 / me_range=32 / chroma_me=1 / trellis=2 / 8x8dct=1 / cqm=0 / deadzone=21,11 / fast_pskip=0 / chroma_qp_offset=-3 / threads=18 / lookahead_threads=3 / sliced_threads=0 / nr=0 / decimate=1 / interlaced=0 / bluray_compat=0 / constrained_intra=0 / bframes=9 / b_pyramid=2 / b_adapt=2 / b_bias=0 / direct=1 / weightb=1 / open_gop=0 / weightp=2 / keyint=250 / keyint_min=25 / scenecut=40 / intra_refresh=0 / rc=2pass / mbtree=0 / bitrate=2000 / ratetol=1.0 / qcomp=0.60 / qpmin=0 / qpmax=69 / qpstep=4 / cplxblur=20.0 / qblur=0.5 / ip_ratio=1.40 / pb_ratio=1.30 / aq=2:1.00
Default : Да
Forced : Нет
Цветовой диапазон : Limited
Основные цвета : BT.709
Характеристики трансфера : BT.709
Коэффициенты матрицы : BT.709

Аудио
Идентификатор : 2
Формат : AC-3
Формат/Информация : Audio Coding 3
Коммерческое название : Dolby Digital
Идентификатор кодека : A_AC3
Продолжительность : 47 м. 24 с.
Вид битрейта : Постоянный
Битрейт : 192 Кбит/сек
Каналы : 2 канала
ChannelLayout : L R
Частота : 48,0 КГц
Частота кадров : 31,250 кадров/сек (1536 SPF)
Метод сжатия : С потерями
Размер потока : 65,1 Мбайт (9%)
ServiceKind/String : Complete Main
Default : Да
Forced : Нет






   Похожие торренты   Торрент   Размер 
В этой теме нет новых непрочитанных сообщений. Расплата / Месть (1-2 серии из 8) (Дарья Полторацкая) [2019, драма, мелодрама, детектив, HDTVRip-AVC]

6 | 0

1.47 ГБ

В этой теме нет новых непрочитанных сообщений. Расплата / Месть (1-9 серии из 9) (Дарья Полторацкая) [2019, драма, мелодрама, детектив, SATRip-AVC]

136 | 49

4.64 ГБ

В этой теме нет новых непрочитанных сообщений. Расплата / Месть (1-6 серии из 8) (Дарья Полторацкая) [2019, драма, мелодрама, детектив, SATRip-AVC]

26 | 7

3.16 ГБ

В этой теме нет новых непрочитанных сообщений. Расплата / Месть (1-3 серии из 8) (Дарья Полторацкая) [2019, драма, мелодрама, детектив, SATRip-AVC]

95 | 4

1.59 ГБ

В этой теме нет новых непрочитанных сообщений. Расплата / Месть (1-5 серии из 8) (Дарья Полторацкая) [2019, драма, мелодрама, детектив, HDTVRip]

10 | 0

3.04 ГБ

В этой теме нет новых непрочитанных сообщений. Расплата / Месть (1-8 серии из 8) (Дарья Полторацкая) [2019, драма, мелодрама, детектив, HDTVRip]

312 | 49

4.92 ГБ

В этой теме нет новых непрочитанных сообщений. Расплата / Месть (1-2 серии из 8) (Дарья Полторацкая) [2019, драма, мелодрама, детектив, HDTVRip]

17 | 0

1.21 ГБ




Вы не можете начинать темы
Вы не можете отвечать на сообщения
Вы не можете редактировать свои сообщения
Вы не можете удалять свои сообщения
Вы не можете добавлять вложения

Перейти:  
 Вход
ppkBB3cker v.2 © 2008-2014 @ PPK
[ Time : 0.034s | 18 Queries | GZIP : Off ]

cron