img image001 image001 image001 image001 image001 image001 image001 image001 image001 image001 image001 image001 image001 image001 image001

Planets Sun Sun Sun
Статистика раздачи
Автор: Снежана | Размер: 8.21 ГБ | Добавлен: 02 дек 2019
Раздают: 18    Качают: 0
Скачать торрент
Скачать торрент
Описание торрента

СообщениеДобавлено: 02 дек 2019 

Исчезнувшая невеста (1-8 серии из 8)

Перевод: Не требуется, cубтитры: отсутствуют
Формат: WEBRip 720p, MKV, H.264, AC3
Страна: Украина
Режиссер: Майя Сомова
Жанр: детектив, мелодрама
Всего серий: 8
Продолжительность: 8 х 00:45:25
Год выпуска: 2019

В ролях: Валерия Ходос, Дмитрий Паламарчук, Дарья Трегубова, Клавдия Дрозд-Бунина, Наталья Бабенко, Сергей Комаровский, Юрий Радионов, Софья Письман, Иван Залуский, Сергей Козлов, Галина Корнеева, Артем Мяус, Виталий Иванченко, Алла Мартынюк, Константин Данилюк, Игорь Качур, Григорий Бакланов, Анна Лебедева, Марта Логачёва, Анатолий Ященко, Елена Хохлаткина, Сергей Поляков, Станислав Щёкин, Роман Магрицкий, Игорь Марусяк, Борис Книженко, Артур Талабира

Описание: Эта история о таинственном исчезновении главной героини Анны Твардовской. 40-летняя красивая и успешная женщина пропадает после своей свадьбы: в первую брачную ночь она бесследно исчезает при загадочных обстоятельствах. То, что вначале кажется несчастным случаем, очень скоро квалифицируется следствием как убийство...

Рейтинг и доп. информация:


Видео: 1280х720 (16:9), 25 fps, AVC MPEG-4 (x264), ~ 3000 kbps avg, 0.130 bit/pixel
Аудио: 48 kHz, АС3, 2/0 (L,R), ~192 kbps avg
Общее
Уникальный идентификатор : 15620707182513509422817189448012103780 (0xBC0705354BF00F8C00A9B9E0EED8064)
Полное имя : C:\Исчезнувшая невеста.(2019).WEBRip (720p).by.Nicodem.Files-x\01.Исчезнувшая невеста.(2019).WEBRip (720p).by.Nicodem.Files-x.mkv
Формат : Matroska
Версия формата : Version 4
Размер файла : 1020 Мбайт
Продолжительность : 45 м. 25 с.
Общий поток : 3139 Кбит/сек
Программа кодирования : Lavf56.36.100
Библиотека кодирования : Lavf56.36.100

Видео
Идентификатор : 1
Формат : AVC
Формат/Информация : Advanced Video Codec
Профиль формата :
Настройки формата : CABAC / 4 Ref Frames
Параметр CABAC формата : Да
Параметр RefFrames формата : 4 кадра
Идентификатор кодека : V_MPEG4/ISO/AVC
Продолжительность : 45 м. 25 с.
Битрейт : 3000 Кбит/сек
Ширина : 1280 пикселей
Высота : 720 пикселей
Соотношение сторон : 16:9
Режим частоты кадров : Постоянный
Частота кадров : 25,000 кадров/сек
Цветовое пространство : YUV
Субдискретизация насыщенности : 4:2:0
Битовая глубина : 8 бит
Тип развёртки : Прогрессивная
Бит/(Пиксели*Кадры) : 0.130
Размер потока : 937 Мбайт (92%)
Библиотека кодирования : x264 core 142 r2491 24e4fed
Настройки программы : cabac=1 / ref=3 / deblock=1:0:0 / analyse=0x3:0x113 / me=hex / subme=7 / psy=1 / psy_rd=1.00:0.00 / mixed_ref=1 / me_range=16 / chroma_me=1 / trellis=1 / 8x8dct=1 / cqm=0 / deadzone=21,11 / fast_pskip=1 / chroma_qp_offset=-2 / threads=16 / lookahead_threads=2 / sliced_threads=0 / nr=0 / decimate=1 / interlaced=0 / bluray_compat=0 / constrained_intra=0 / bframes=3 / b_pyramid=2 / b_adapt=1 / b_bias=0 / direct=1 / weightb=1 / open_gop=0 / weightp=2 / keyint=250 / keyint_min=25 / scenecut=40 / intra_refresh=0 / rc_lookahead=40 / rc=abr / mbtree=1 / bitrate=3000 / ratetol=1.0 / qcomp=0.60 / qpmin=0 / qpmax=69 / qpstep=4 / ip_ratio=1.40 / aq=1:1.00
Default : Да
Forced : Нет
Цветовой диапазон : Limited
Характеристики трансфера : BT.601
Коэффициенты матрицы : BT.601

Аудио
Идентификатор : 2
Формат : AC-3
Формат/Информация : Audio Coding 3
Коммерческое название : Dolby Digital
Идентификатор кодека : A_AC3
Продолжительность : 45 м. 25 с.
Вид битрейта : Постоянный
Битрейт : 192 Кбит/сек
Каналы : 2 канала
ChannelLayout : L R
Частота : 48,0 КГц
Частота кадров : 31,250 кадров/сек (1536 SPF)
Метод сжатия : С потерями
Задержка видео : -80 мс.
Размер потока : 62,4 Мбайт (6%)
Язык : unknown
ServiceKind/String : Complete Main
Default : Да
Forced : Нет






   Похожие торренты   Торрент   Размер 
В этой теме нет новых непрочитанных сообщений. Исчезнувшая невеста (1-2 серии из 8) (Майя Сомова) [2019, детектив, мелодрама, WEBRip 720p]

16 | 0

2 ГБ

В этой теме нет новых непрочитанных сообщений. Исчезнувшая невеста (1-6 серии из 8) (Майя Сомова) [2019, детектив, мелодрама, WEBRip 720p]

0 | 0

6.16 ГБ

В этой теме нет новых непрочитанных сообщений. Исчезнувшая невеста (1-2 серии из 8) (Майя Сомова) [2019, детектив, мелодрама, WEBRip]

33 | 1

1.14 ГБ

В этой теме нет новых непрочитанных сообщений. Исчезнувшая невеста (1-6 серии из 8) (Майя Сомова) [2019, детектив, мелодрама, WEBRip]

29 | 8

3.48 ГБ

В этой теме нет новых непрочитанных сообщений. Исчезнувшая невеста (1-8 серии из 8) (Майя Сомова) [2019, детектив, мелодрама, WEBRip]

153 | 24

4.63 ГБ

В этой теме нет новых непрочитанных сообщений. Исчезнувшая невеста (1-6 серии из 8) (Майя Сомова) [2019, детектив, мелодрама, WEBRip-AVC]

48 | 27

3.49 ГБ

В этой теме нет новых непрочитанных сообщений. Исчезнувшая невеста (1-2 серии из 8) (Майя Сомова) [2019, детектив, мелодрама, WEBRip-AVC]

13 | 0

1.14 ГБ




Вы не можете начинать темы
Вы не можете отвечать на сообщения
Вы не можете редактировать свои сообщения
Вы не можете удалять свои сообщения
Вы не можете добавлять вложения

Перейти:  
 Вход
ppkBB3cker v.2 © 2008-2014 @ PPK
[ Time : 0.048s | 19 Queries | GZIP : Off ]

cron