img image001 image001 image001 image001 image001 image001 image001 image001 image001 image001 image001 image001 image001 image001 image001

Planets Sun Sun Sun
Статистика раздачи
Автор: Снежана | Размер: 5.58 ГБ | Добавлен: 02 дек 2019
Раздают: 24    Качают: 26
Скачать торрент
Скачать торрент
Описание торрента

СообщениеДобавлено: 02 дек 2019 

Туристическая полиция (1-2 сезоны 1-17 серии из 24)

Перевод: Не требуется, cубтитры: отсутствуют
Формат: WEBRip-AVC, MKV, H.264, AC3
Страна: Россия
Режиссер: Константин Колесов
Жанр: комедия, криминал
Всего серий: 24
Продолжительность: 17 x ~ 00:27:00
Год выпуска: 2019

В ролях: Анастасия Ивлеева, Михаил Башкатов, Сергей Бурунов, Сергей Пиоро, Александр Ляпин, Светлана Листова, Евгений Кушпель, Анастасия Немец, Сергей Голюдов, Денис Бузин, Павел Комаров (II), Альбина Кабалина, Павел Бойко, Велимир Русаков, Евгений Кушпель (младший), Ислам Удычак, Владимир Тебенко

Описание: О специальном подразделении по охране общественного порядка, которое обеспечивает помощь и безопасность туристам, отдыхающим на российском побережье. Сотрудник туристической полиции Лера мечтает расследовать серьезные дела и опасные преступления. Но в ее отделе они встречаются так же редко, как хорошее настроение у начальника и сообразительность у коллег по службе. Несмотря на это, Лера принципиально отказывается от «тепленького местечка», заботливо подготовленного отцом-адмиралом, и не бросает работу в спецподразделении по охране общественного порядка Сочи. Но только как продолжать службу и охранять покой гостей города, связавшись с вором и аферистом?

Рейтинг и доп. информация:


Видео: 1024x576, (16:9), 25 fps, AVC MPEG-4 (x264), ~ 1600 kbps , 0.109 bit/pixel
Аудио: 44 kHz, AC3, 2/0 (L,R) ch, ~192 kbps
Внимание! Раздача ведётся путём добавления новых серий. При каждом добавлении создаётся новый торрент.
Чтобы начать докачку новой серии, пользователям необходимо сделать следующее:
1. Остановить скачивание.
2. Удалить старый торрент у себя из клиента (старые серии удалять не надо).
3. Скачать новый торрент и запустить его у себя в клиенте вместо старого, при этом указать клиенту путь в старую папку куда и должно происходить скачивание новых серий. Ваш клиент при этом должен произвести хеширование (проверку) старой папки и будет докачивать только те серии, которых у вас ещё нет. Старые серии при этом не удаляются, а продолжают раздаваться! Eсли вы уже удалили старые серии, то предотвратить повторную закачку старых серий можно, отжав галочку в соответствующих местах при запуске нового торрента.


Общее
Уникальный идентификатор : 227796888839546469185549244507225941481 (0xAB6015BEFBE2008087C26F90B06D65E9)
Полное имя : C:\Туристическая полиция.(2019).WEBRip.(AVC).Files-x\01.Туристическая полиция.(2019).WEBRip.(AVC).by.Серый1779.Files-x.mkv
Формат : Matroska
Версия формата : Version 2
Размер файла : 354 Мбайт
Продолжительность : 27 м. 37 с.
Общий поток : 1792 Кбит/сек
Дата кодирования : UTC 2019-02-26 17:44:16
Программа кодирования : mkvmerge v7.8.0 (''River Man'') 32bit built on Apr 3 2015 12:11:22
Библиотека кодирования : libebml v1.3.1 + libmatroska v1.4.2

Видео
Идентификатор : 1
Формат : AVC
Формат/Информация : Advanced Video Codec
Профиль формата :
Настройки формата : CABAC / 9 Ref Frames
Параметр CABAC формата : Да
Параметр RefFrames формата : 9 кадров
Идентификатор кодека : V_MPEG4/ISO/AVC
Продолжительность : 27 м. 37 с.
Битрейт : 1600 Кбит/сек
Ширина : 1024 пикселя
Высота : 576 пикселей
Соотношение сторон : 16:9
Режим частоты кадров : Постоянный
Частота кадров : 25,000 кадров/сек
Цветовое пространство : YUV
Субдискретизация насыщенности : 4:2:0
Битовая глубина : 8 бит
Тип развёртки : Прогрессивная
Бит/(Пиксели*Кадры) : 0.109
Размер потока : 309 Мбайт (87%)
Библиотека кодирования : x264 core 146 r2538 121396c
Настройки программы : cabac=1 / ref=9 / deblock=1:-2:-1 / analyse=0x3:0x133 / me=umh / subme=9 / psy=1 / psy_rd=1.00:0.15 / mixed_ref=1 / me_range=32 / chroma_me=1 / trellis=2 / 8x8dct=1 / cqm=0 / deadzone=21,11 / fast_pskip=0 / chroma_qp_offset=-3 / threads=18 / lookahead_threads=3 / sliced_threads=0 / nr=0 / decimate=1 / interlaced=0 / bluray_compat=0 / constrained_intra=0 / bframes=9 / b_pyramid=2 / b_adapt=2 / b_bias=0 / direct=1 / weightb=1 / open_gop=0 / weightp=2 / keyint=250 / keyint_min=25 / scenecut=40 / intra_refresh=0 / rc=2pass / mbtree=0 / bitrate=1600 / ratetol=1.0 / qcomp=0.60 / qpmin=0 / qpmax=69 / qpstep=4 / cplxblur=20.0 / qblur=0.5 / ip_ratio=1.40 / pb_ratio=1.30 / aq=2:1.00
Default : Да
Forced : Нет
Цветовой диапазон : Limited
Основные цвета : BT.709
Характеристики трансфера : BT.709
Коэффициенты матрицы : BT.709

Аудио
Идентификатор : 2
Формат : AC-3
Формат/Информация : Audio Coding 3
Коммерческое название : Dolby Digital
Идентификатор кодека : A_AC3
Продолжительность : 27 м. 37 с.
Вид битрейта : Постоянный
Битрейт : 192 Кбит/сек
Каналы : 2 канала
Channel layout : L R
Частота : 44,1 КГц
Частота кадров : 28,711 кадров/сек (1536 SPF)
Битовая глубина : 16 бит
Метод сжатия : С потерями
Размер потока : 37,9 Мбайт (11%)
ServiceKind/String : Complete Main
Default : Да
Forced : Нет






   Похожие торренты   Торрент   Размер 
В этой теме нет новых непрочитанных сообщений. Туристическая полиция (1-2 сезоны 1-19 серии из 24) (Константин Колесов) [2019, комедия, криминал, WEBRip-AVC]

2 | 2

6.17 ГБ

В этой теме нет новых непрочитанных сообщений. Туристическая полиция (1-2 сезоны 1-12 серии из 24) (Константин Колесов) [2019, комедия, криминал, WEBRip-AVC]

0 | 0

4.03 ГБ

В этой теме нет новых непрочитанных сообщений. Туристическая полиция (1-2 сезоны 1-16 серии из 24) (Константин Колесов) [2019, комедия, криминал, WEBRip-AVC]

2 | 1

5.29 ГБ

В этой теме нет новых непрочитанных сообщений. Туристическая полиция (1-2 сезоны 1-15 серии из 24) (Константин Колесов) [2019, комедия, криминал, WEBRip-AVC]

3 | 29

4.99 ГБ

В этой теме нет новых непрочитанных сообщений. Туристическая полиция (1-2 сезоны 1-14 серии из 24) (Константин Колесов) [2019, комедия, криминал, WEBRip-AVC]

1 | 3

4.66 ГБ

В этой теме нет новых непрочитанных сообщений. Туристическая полиция (1-2 сезоны 1-21 серии из 24) (Константин Колесов) [2019, комедия, криминал, WEBRip-AVC]

3 | 15

6.78 ГБ

В этой теме нет новых непрочитанных сообщений. Туристическая полиция (1-2 сезоны 1-13 серии из 24) (Константин Колесов) [2019, комедия, криминал, WEBRip-AVC]

15 | 10

4.35 ГБ




Вы не можете начинать темы
Вы не можете отвечать на сообщения
Вы не можете редактировать свои сообщения
Вы не можете удалять свои сообщения
Вы не можете добавлять вложения

Перейти:  
 Вход
ppkBB3cker v.2 © 2008-2014 @ PPK
[ Time : 1.723s | 16 Queries | GZIP : Off ]

cron