img image001 image001 image001 image001 image001 image001 image001 image001 image001 image001 image001 image001 image001 image001 image001

Planets Sun Sun Sun
Статистика раздачи
Автор: Снежана | Размер: 29.35 ГБ | Добавлен: 02 дек 2019
Раздают: 0    Качают: 0
Скачать торрент
Скачать торрент
Описание торрента

СообщениеДобавлено: 02 дек 2019 

Гений / Страховой агент (1-14 серии из 16)

Перевод: Не требуется, cубтитры: отсутствуют
Формат: WEBRip 1080p, MKV, H.264, AC3
Страна: Россия
Режиссер: Ольга Кандидатова
Жанр: криминал, мелодрама
Всего серий: 16
Продолжительность: 14 x ~ 00:48:00
Год выпуска: 2018

В ролях: Владимир Данай, Анна Арефьева, Татьяна Трунова, Варвара Владимирова, Дмитрий Поднозов, Илья Сланевский, Андрей Феськов, Сергей Колос, Денис Пьянов, Данила Воропаев, Андрей Лёвин, Глафира Козулина, Андрей Кондратьев, Алексей Титков, Павел Григорьев, Александра Сыдорук, Владимир Постников, Андрей Павловец, Мария Русских, Сергей Агафонов, Гульназ Насырова, Игорь Агеев, Максим Фомин, Виталий Олечкин, Борис Хасанов, Наталья Парашкина, Дарья Румянцева, Алёна Баркова, Наталья Мызникова, Ирина Горкунова, Анна Санникова, Станислав Шапкин, Сергей Гамов, Михаил Вассербаум, Андрей Хитрин, Александр Удальцов, Дмитрий Аршанский, Лариса Логинова, Андрей Астраханцев, Лариса Климова, Дмитрий Новиков (III), Евгений Седов, Алексей Байдаков, Ольга Новикова, Николай Харитонов (II), Илья Морозов (II), Анастасия Тюнина, Михаил Гришин, Геннадий Спириденков, Александр Лушин (II), Мария Фефилова, Дарья Завьялова, Александр Саюталин, Ирина Сотикова, Александр Ганелин (II), Андрей Гаврюшкин, Егор Лесников, Наталья Иохвидова, Антон Пулит, Фома Бызгу, Дмитрий Олейник

Описание: После предательства союзников бывший мошенник Феликс (Илья Сланевский) «сдаёт» банду своих подельников в обмен на условный срок и участие в программе защиты свидетелей. В рамках программы Феликса перевозят в Санкт-Петербург, меняя его внешность, паспорт и жизнь. Теперь его зовут Сергей Кривошипов (Владимир Данай) и, будучи в образе совершенно другого человека, Феликс устраивается на работу в страховую компанию. Благодаря тонкому уму, проницательности и наблюдательности, он решает самые сложные вопросы, наживая при этом новых врагов.

Рейтинг и доп. информация:


Видео: 1920х1080 (16:9), 25 fps, AVC MPEG-4 (x264), ~ 6000 kbps avg, 0.116 bit/pixel
Аудио: 48 kHz, AC3, 2/0 (L,R) ch, ~192 kbps
Внимание! Раздача ведётся путём добавления новых серий. При каждом добавлении создаётся новый торрент.
Чтобы начать докачку новой серии, пользователям необходимо сделать следующее:
1. Остановить скачивание.
2. Удалить старый торрент у себя из клиента (старые серии удалять не надо).
3. Скачать новый торрент и запустить его у себя в клиенте вместо старого, при этом указать клиенту путь в старую папку куда и должно происходить скачивание новых серий. Ваш клиент при этом должен произвести хеширование (проверку) старой папки и будет докачивать только те серии, которых у вас ещё нет. Старые серии при этом не удаляются, а продолжают раздаваться! Eсли вы уже удалили старые серии, то предотвратить повторную закачку старых серий можно, отжав галочку в соответствующих местах при запуске нового торрента.


Общее
Уникальный идентификатор : 246860558832726727518926593640298084150 (0xB9B79D3E77659EF7AA7B4BD9AFD27736)
Полное имя : C:\Geniy.2018.WEB-DL.(1080p).ExKinoRay\Geniy.E01.2018.WEB-DL.(1080p).ExKinoRay.mkv
Формат : Matroska
Версия формата : Version 4
Размер файла : 2,06 Гбайт
Продолжительность : 48 м. 3 с.
Режим общего битрейта : Постоянный
Общий поток : 6152 Кбит/сек
Дата кодирования : UTC 2019-11-21 17:10:34
Программа кодирования : mkvmerge v6.9.1 (''Blue Panther'') 64bit built on Apr 18 2014 18:23:38
Библиотека кодирования : libebml v1.3.0 + libmatroska v1.4.1

Видео
Идентификатор : 1
Формат : AVC
Формат/Информация : Advanced Video Codec
Профиль формата :
Настройки формата : 2 Ref Frames
Параметр CABAC формата : Нет
Параметр RefFrames формата : 2 кадра
Идентификатор кодека : V_MPEG4/ISO/AVC
Продолжительность : 48 м. 3 с.
Вид битрейта : Постоянный
Битрейт : 6000 Кбит/сек
Ширина : 1920 пикселей
Высота : 1080 пикселей
Соотношение сторон : 16:9
Режим частоты кадров : Постоянный
Частота кадров : 25,000 кадров/сек
Стандарт вещания : PAL
Цветовое пространство : YUV
Субдискретизация насыщенности : 4:2:0
Битовая глубина : 8 бит
Тип развёртки : Прогрессивная
Бит/(Пиксели*Кадры) : 0.116
Размер потока : 1,96 Гбайт (95%)
Default : Да
Forced : Нет
Цветовой диапазон : Limited
Основные цвета : BT.709
Характеристики трансфера : BT.709
Коэффициенты матрицы : BT.709

Аудио
Идентификатор : 2
Формат : AC-3
Формат/Информация : Audio Coding 3
Коммерческое название : Dolby Digital
Идентификатор кодека : A_AC3
Продолжительность : 48 м. 3 с.
Вид битрейта : Постоянный
Битрейт : 192 Кбит/сек
Каналы : 2 канала
ChannelLayout : L R
Частота : 48,0 КГц
Частота кадров : 31,250 кадров/сек (1536 SPF)
Метод сжатия : С потерями
Размер потока : 66,0 Мбайт (3%)
Язык : Russian
ServiceKind/String : Complete Main
Default : Да
Forced : Нет






   Похожие торренты   Торрент   Размер 
В этой теме нет новых непрочитанных сообщений. Гений / Страховой агент (1-10 серии из 16) (Ольга Кандидатова) [2018, криминал, мелодрама, WEBRip 1080p]

11 | 22

21.02 ГБ

В этой теме нет новых непрочитанных сообщений. Гений / Страховой агент (1-12 серии из 16) (Ольга Кандидатова) [2018, криминал, мелодрама, WEBRip 1080p]

15 | 8

25.22 ГБ

В этой теме нет новых непрочитанных сообщений. Гений / Страховой агент (1-4 серии из 16) (Ольга Кандидатова) [2018, криминал, мелодрама, WEBRip 1080p]

15 | 3

8.3 ГБ

В этой теме нет новых непрочитанных сообщений. Гений / Страховой агент (1-16 серии из 16) (Ольга Кандидатова) [2018, криминал, мелодрама, WEBRip 1080p]

11 | 8

33.51 ГБ

В этой теме нет новых непрочитанных сообщений. Гений / Страховой агент (1-8 серии из 16) (Ольга Кандидатова) [2018, криминал, мелодрама, WEBRip 1080p]

0 | 0

16.89 ГБ

В этой теме нет новых непрочитанных сообщений. Гений / Страховой агент (1-6 серии из 16) (Ольга Кандидатова) [2018, криминал, мелодрама, WEBRip 1080p]

2 | 1

12.62 ГБ

В этой теме нет новых непрочитанных сообщений. Гений / Страховой агент (1-2 серии из 16) (Ольга Кандидатова) [2018, криминал, мелодрама, WEBRip 1080p]

5 | 1

4.13 ГБ




Вы не можете начинать темы
Вы не можете отвечать на сообщения
Вы не можете редактировать свои сообщения
Вы не можете удалять свои сообщения
Вы не можете добавлять вложения

Перейти:  
 Вход
ppkBB3cker v.2 © 2008-2014 @ PPK
[ Time : 0.032s | 16 Queries | GZIP : Off ]

cron