img image001 image001 image001 image001 image001 image001 image001 image001 image001 image001 image001 image001 image001 image001 image001

Planets Sun Sun Sun
Статистика раздачи
Автор: Снежана | Размер: 20.96 ГБ | Добавлен: 02 дек 2019
Раздают: 41    Качают: 29
Скачать торрент
Скачать торрент
Описание торрента

СообщениеДобавлено: 02 дек 2019 

Остров Обречённых (1-10 серии из 10)

Перевод: Не требуется, cубтитры: отсутствуют
Формат: WEBRip 1080p, MKV, H.264, AC3
Страна: Россия
Режиссер: Фуад Шабанов
Жанр: боевик, детектив, приключения
Всего серий: 10
Продолжительность: 10 х ~ 00:48:00
Год выпуска: 2019

В ролях: Константин Соловьёв, Дмитрий Пчела, Олег Тактаров, Андрей Багиров, Илья Коврижных, Юрий Иванов, Марта Дроздова, Евгений Мундум, Михаил Асанкин, Екатерина Данилова (III), Сергей Шарифуллин, Виталий Даушев, Янис Сафонов, Вячеслав Кулаков, Дмитрий Соколов, Даниил Баранов, Анжела Кольцова, Алёна Лисовская, Андрей Виноградов, Руслан Халюзов, Владимир Гусев (II), Светлана Чуйкина, Юрий Ваксман, Сергей Генкин, Олег Чевелёв-Тополь, Николай Кудымов, Никита Кононов, Андрей Соколов, Владимир Майзингер, Пётр Круговихин, Дмитрий Лавров, Владимир Песенников, Анна Беленькая, Дмитрий Гуляев, Татьяна Малькова, Сергей Цепов, Олег Павлов, Юля Арутюнова, Сергей Карпов, Дмитрий Демидов, Александр Ширяев, Максим Подзин, Семён Иванов, Илья Колесов, Андрей Зубков, Евгения Засухина, Татьяна Лопырева, Олег Новичев, Сергей Кожевников, Сергей Атрощенко

Описание: Остров Обречённых – так называют местные старожилы свой район, затерянный среди болот, рек и озёр, где-то на северо-западе России. Здесь однажды утром рыбаки обнаружили тело девушки в одежде 16 века. Для раскрытия преступления из столицы приезжают два сыщика из разных ведомств – МВД и ФСБ. Герои сталкиваются с неповторимым колоритом российской глубинки, с её таинственными легендами и преданиями. И прежде чем они доберутся до разгадки, им предстоит распутать клубок других, не менее загадочных преступлений.

Рейтинг и доп. информация:


Видео: 1920х1080 (16:9), 25 fps, AVC MPEG-4 (x264), ~ 6000 kbps avg, 0.116 bit/pixel
Аудио: 48 kHz, AC3, 2/0 (L,R) ch, ~192 kbps
Общее
Уникальный идентификатор : 176855944615672353827893910877259022005 (0x850D3749030431BB9A1E5EB49E8DBEB5)
Полное имя : C:\Ostrov.obrechonnyh.2018.WEB-DL.(1080p).ExKinoRay\Ostrov.obrechonnyh.Е01.2018.WEB-DL.(1080p).ExKinoRay.mkv
Формат : Matroska
Версия формата : Version 4
Размер файла : 2,09 Гбайт
Продолжительность : 48 м. 40 с.
Режим общего битрейта : Постоянный
Общий поток : 6152 Кбит/сек
Дата кодирования : UTC 2019-11-25 19:13:43
Программа кодирования : mkvmerge v6.9.1 (''Blue Panther'') 64bit built on Apr 18 2014 18:23:38
Библиотека кодирования : libebml v1.3.0 + libmatroska v1.4.1

Видео
Идентификатор : 1
Формат : AVC
Формат/Информация : Advanced Video Codec
Профиль формата :
Настройки формата : 2 Ref Frames
Параметр CABAC формата : Нет
Параметр RefFrames формата : 2 кадра
Идентификатор кодека : V_MPEG4/ISO/AVC
Продолжительность : 48 м. 40 с.
Вид битрейта : Постоянный
Битрейт : 6000 Кбит/сек
Ширина : 1920 пикселей
Высота : 1080 пикселей
Соотношение сторон : 16:9
Режим частоты кадров : Постоянный
Частота кадров : 25,000 кадров/сек
Стандарт вещания : PAL
Цветовое пространство : YUV
Субдискретизация насыщенности : 4:2:0
Битовая глубина : 8 бит
Тип развёртки : Прогрессивная
Бит/(Пиксели*Кадры) : 0.116
Размер потока : 1,98 Гбайт (95%)
Default : Да
Forced : Нет
Цветовой диапазон : Limited
Основные цвета : BT.709
Характеристики трансфера : BT.709
Коэффициенты матрицы : BT.709

Аудио
Идентификатор : 2
Формат : AC-3
Формат/Информация : Audio Coding 3
Коммерческое название : Dolby Digital
Идентификатор кодека : A_AC3
Продолжительность : 48 м. 40 с.
Вид битрейта : Постоянный
Битрейт : 192 Кбит/сек
Каналы : 2 канала
ChannelLayout : L R
Частота : 48,0 КГц
Частота кадров : 31,250 кадров/сек (1536 SPF)
Метод сжатия : С потерями
Размер потока : 66,8 Мбайт (3%)
Язык : Russian
ServiceKind/String : Complete Main
Default : Да
Forced : Нет






   Похожие торренты   Торрент   Размер 
В этой теме нет новых непрочитанных сообщений. Остров Обречённых (1-8 серии из 10) (Фуад Шабанов) [2018, боевик, детектив, приключения, WEBRip 1080p]

27 | 7

16.81 ГБ

В этой теме нет новых непрочитанных сообщений. Остров Обречённых (1-2 серии из 10) (Фуад Шабанов) [2018, боевик, детектив, приключения, WEBRip 1080p]

14 | 0

4.16 ГБ

В этой теме нет новых непрочитанных сообщений. Остров Обречённых (1-6 серии из 10) (Фуад Шабанов) [2018, боевик, детектив, приключения, WEBRip 1080p]

34 | 23

12.66 ГБ

В этой теме нет новых непрочитанных сообщений. Остров Обречённых (1-4 серии из 10) (Фуад Шабанов) [2018, боевик, детектив, приключения, WEBRip 1080p]

20 | 4

8.48 ГБ

В этой теме нет новых непрочитанных сообщений. Остров Обречённых (1-2 серии из 10) (Фуад Шабанов) [2018, боевик, детектив, приключения, WEBRip]

36 | 3

1.22 ГБ

В этой теме нет новых непрочитанных сообщений. Остров Обречённых (1-10 серии из 10) (Фуад Шабанов) [2018, боевик, детектив, приключения, WEBRip]

175 | 44

6.14 ГБ

В этой теме нет новых непрочитанных сообщений. Остров Обречённых (1-4 серии из 10) (Фуад Шабанов) [2018, боевик, детектив, приключения, WEBRip]

0 | 0

2.48 ГБ




Вы не можете начинать темы
Вы не можете отвечать на сообщения
Вы не можете редактировать свои сообщения
Вы не можете удалять свои сообщения
Вы не можете добавлять вложения

Перейти:  
 Вход
ppkBB3cker v.2 © 2008-2014 @ PPK
[ Time : 0.027s | 17 Queries | GZIP : Off ]

cron