img image001 image001 image001 image001 image001 image001 image001 image001 image001 image001 image001 image001 image001 image001 image001

Planets Sun Sun Sun
Статистика раздачи
Автор: Снежана | Размер: 12.58 ГБ | Добавлен: 02 дек 2019
Раздают: 128    Качают: 54
Скачать торрент
Скачать торрент
Описание торрента

СообщениеДобавлено: 02 дек 2019 

Остров Обречённых (1-10 серии из 10)

Перевод: Не требуется, cубтитры: отсутствуют
Формат: WEBRip 720p, MKV, H.264, AC3
Страна: Россия
Режиссер: Фуад Шабанов
Жанр: боевик, детектив, приключения
Всего серий: 10
Продолжительность: 10 x ~ 00:48:00
Год выпуска: 2018

В ролях: Константин Соловьёв, Дмитрий Пчела, Олег Тактаров, Андрей Багиров, Илья Коврижных, Юрий Иванов, Марта Дроздова, Евгений Мундум, Михаил Асанкин, Екатерина Данилова (III), Сергей Шарифуллин, Виталий Даушев, Янис Сафонов, Вячеслав Кулаков, Дмитрий Соколов, Даниил Баранов, Анжела Кольцова, Алёна Лисовская, Андрей Виноградов, Руслан Халюзов, Владимир Гусев (II), Светлана Чуйкина, Юрий Ваксман, Сергей Генкин, Олег Чевелёв-Тополь, Николай Кудымов, Никита Кононов, Андрей Соколов, Владимир Майзингер, Пётр Круговихин, Дмитрий Лавров, Владимир Песенников, Анна Беленькая, Дмитрий Гуляев, Татьяна Малькова, Сергей Цепов, Олег Павлов, Юля Арутюнова, Сергей Карпов, Дмитрий Демидов, Александр Ширяев, Максим Подзин, Семён Иванов, Илья Колесов, Андрей Зубков, Евгения Засухина, Татьяна Лопырева, Олег Новичев, Сергей Кожевников, Сергей Атрощенко

Описание: Остров Обречённых – так называют местные старожилы свой район, затерянный среди болот, рек и озёр, где-то на северо-западе России. Здесь однажды утром рыбаки обнаружили тело девушки в одежде 16 века. Для раскрытия преступления из столицы приезжают два сыщика из разных ведомств – МВД и ФСБ. Герои сталкиваются с неповторимым колоритом российской глубинки, с её таинственными легендами и преданиями. И прежде чем они доберутся до разгадки, им предстоит распутать клубок других, не менее загадочных преступлений.

Рейтинг и доп. информация:


Видео: 1280х720 (16:9), 25 fps, AVC MPEG-4 (x264), ~ 3500 kbps avg, 0.152 bit/pixel
Аудио: 48 kHz, AC3, 2/0 (L,R) ch, ~192 kbps
Общее
Уникальный идентификатор : 172943971931870032063203615527931202799 (0x821BCC2402D5E0CB9EF47F5810B3CCEF)
Полное имя : C:\Ostrov.obrechonnyh.2018.WEB-DLRip.(720p).ExKinoRay\Ostrov.obrechonnyh.Е01.2018.WEB-DLRip.(720p).ExKinoRay.mkv
Формат : Matroska
Версия формата : Version 2
Размер файла : 1,26 Гбайт
Продолжительность : 48 м. 40 с.
Общий поток : 3692 Кбит/сек
Дата кодирования : UTC 2019-11-25 20:31:48
Программа кодирования : mkvmerge v7.8.0 (''River Man'') 32bit built on Apr 3 2015 12:11:22
Библиотека кодирования : libebml v1.3.1 + libmatroska v1.4.2

Видео
Идентификатор : 1
Формат : AVC
Формат/Информация : Advanced Video Codec
Профиль формата :
Настройки формата : CABAC / 9 Ref Frames
Параметр CABAC формата : Да
Параметр RefFrames формата : 9 кадров
Идентификатор кодека : V_MPEG4/ISO/AVC
Продолжительность : 48 м. 40 с.
Битрейт : 3500 Кбит/сек
Ширина : 1280 пикселей
Высота : 720 пикселей
Соотношение сторон : 16:9
Режим частоты кадров : Постоянный
Частота кадров : 25,000 кадров/сек
Цветовое пространство : YUV
Субдискретизация насыщенности : 4:2:0
Битовая глубина : 8 бит
Тип развёртки : Прогрессивная
Бит/(Пиксели*Кадры) : 0.152
Размер потока : 1,17 Гбайт (93%)
Библиотека кодирования : x264 core 146 r2538 121396c
Настройки программы : cabac=1 / ref=9 / deblock=1:-3:-3 / analyse=0x3:0x113 / me=umh / subme=11 / psy=1 / psy_rd=1.00:0.20 / mixed_ref=1 / me_range=32 / chroma_me=1 / trellis=2 / 8x8dct=1 / cqm=0 / deadzone=21,11 / fast_pskip=1 / chroma_qp_offset=-3 / threads=24 / lookahead_threads=10 / sliced_threads=0 / nr=0 / decimate=0 / interlaced=0 / bluray_compat=0 / constrained_intra=0 / bframes=11 / b_pyramid=2 / b_adapt=2 / b_bias=0 / direct=3 / weightb=1 / open_gop=0 / weightp=2 / keyint=250 / keyint_min=25 / scenecut=40 / intra_refresh=0 / rc_lookahead=60 / rc=2pass / mbtree=1 / bitrate=3500 / ratetol=1.0 / qcomp=0.60 / qpmin=0 / qpmax=69 / qpstep=4 / cplxblur=20.0 / qblur=0.5 / vbv_maxrate=14000 / vbv_bufsize=14000 / nal_hrd=none / filler=0 / ip_ratio=1.40 / aq=3:1.40
Default : Да
Forced : Нет
Цветовой диапазон : Limited
Основные цвета : BT.709
Характеристики трансфера : BT.709
Коэффициенты матрицы : BT.709

Аудио
Идентификатор : 2
Формат : AC-3
Формат/Информация : Audio Coding 3
Коммерческое название : Dolby Digital
Идентификатор кодека : A_AC3
Продолжительность : 48 м. 40 с.
Вид битрейта : Постоянный
Битрейт : 192 Кбит/сек
Каналы : 2 канала
ChannelLayout : L R
Частота : 48,0 КГц
Частота кадров : 31,250 кадров/сек (1536 SPF)
Метод сжатия : С потерями
Размер потока : 66,8 Мбайт (5%)
ServiceKind/String : Complete Main
Default : Да
Forced : Нет







   Похожие торренты   Торрент   Размер 
В этой теме нет новых непрочитанных сообщений. Остров Обречённых (1-4 серии из 10) (Фуад Шабанов) [2018, боевик, детектив, приключения, WEBRip 720p]

1 | 0

5.09 ГБ

В этой теме нет новых непрочитанных сообщений. Остров Обречённых (1-6 серии из 10) (Фуад Шабанов) [2018, боевик, детектив, приключения, WEBRip 720p]

5 | 2

7.6 ГБ

В этой теме нет новых непрочитанных сообщений. Остров Обречённых (1-2 серии из 10) (Фуад Шабанов) [2018, боевик, детектив, приключения, WEBRip 720p]

41 | 4

2.5 ГБ

В этой теме нет новых непрочитанных сообщений. Остров Обречённых (1-4 серии из 10) (Фуад Шабанов) [2018, боевик, детектив, приключения, WEBRip]

0 | 0

2.48 ГБ

В этой теме нет новых непрочитанных сообщений. Остров Обречённых (1-10 серии из 10) (Фуад Шабанов) [2018, боевик, детектив, приключения, WEBRip]

331 | 106

6.14 ГБ

В этой теме нет новых непрочитанных сообщений. Остров Обречённых (1-2 серии из 10) (Фуад Шабанов) [2018, боевик, детектив, приключения, WEBRip]

36 | 3

1.22 ГБ

В этой теме нет новых непрочитанных сообщений. Остров Обречённых (1-4 серии из 10) (Фуад Шабанов) [2018, боевик, детектив, приключения, WEBRip-AVC]

59 | 10

2.34 ГБ




Вы не можете начинать темы
Вы не можете отвечать на сообщения
Вы не можете редактировать свои сообщения
Вы не можете удалять свои сообщения
Вы не можете добавлять вложения

Перейти:  
 Вход
ppkBB3cker v.2 © 2008-2014 @ PPK
[ Time : 0.038s | 18 Queries | GZIP : Off ]

cron