img image001 image001 image001 image001 image001 image001 image001 image001 image001 image001 image001 image001 image001 image001 image001

Planets Sun Sun Sun
Статистика раздачи
Автор: Снежана | Размер: 2.9 ГБ | Добавлен: 02 дек 2019
Раздают: 2    Качают: 1
Скачать торрент
Скачать торрент
Описание торрента

СообщениеДобавлено: 02 дек 2019 

Старец (1-10 серии)

Перевод: Не требуется, cубтитры: отсутствуют
Формат: WEBRip-AVC, MKV, H.264, AC3
Страна: Россия
Режиссер: Борис Невзоров
Жанр: драма
Всего серий: ?
Продолжительность: 10 x ~ 00:26:00
Год выпуска: 2019

В ролях: Борис Невзоров

Описание: Абсолютно новый проект на ТВ-3! Он живет уединенно в лесу, вдали от городской суеты и волнений. Но его деревянный дом, полный света и тепла, становится маяком для всякого, кто потерял надежду и заблудился в лабиринте жизни. Ведь он тот, кто видит судьбу...

Рейтинг и доп. информация: Нет

Видео: 1024x576, (16:9), 25 fps, AVC MPEG-4 (x264), ~ 2000 kbps , 0.136 bit/pixel
Аудио: 48,0 kHz, AC3, 2/0 (L,R) ch, ~192 kbps
Внимание! Раздача ведётся путём добавления новых серий. При каждом добавлении создаётся новый торрент.
Чтобы начать докачку новой серии, пользователям необходимо сделать следующее:
1. Остановить скачивание.
2. Удалить старый торрент у себя из клиента (старые серии удалять не надо).
3. Скачать новый торрент и запустить его у себя в клиенте вместо старого, при этом указать клиенту путь в старую папку куда и должно происходить скачивание новых серий. Ваш клиент при этом должен произвести хеширование (проверку) старой папки и будет докачивать только те серии, которых у вас ещё нет. Старые серии при этом не удаляются, а продолжают раздаваться! Eсли вы уже удалили старые серии, то предотвратить повторную закачку старых серий можно, отжав галочку в соответствующих местах при запуске нового торрента.


Общее
Уникальный идентификатор : 231442388009269000724333321793955544718 (0xAE1E2EBB6252A3AFAB130C10906DBE8E)
Полное имя : C:\Старец.(2019).WEBRip.(AVC).Files-x\01.Старец.(2019).WEBRip.by.Серый1779.Files-x.avi
Формат : Matroska
Версия формата : Version 2
Размер файла : 413 Мбайт
Продолжительность : 26 м. 20 с.
Общий поток : 2193 Кбит/сек
Дата кодирования : UTC 2019-11-18 19:42:52
Программа кодирования : mkvmerge v7.8.0 (''River Man'') 32bit built on Apr 3 2015 12:11:22
Библиотека кодирования : libebml v1.3.1 + libmatroska v1.4.2
FileExtension_Invalid : mkv mk3d mka mks

Видео
Идентификатор : 1
Формат : AVC
Формат/Информация : Advanced Video Codec
Профиль формата :
Настройки формата : CABAC / 9 Ref Frames
Параметр CABAC формата : Да
Параметр RefFrames формата : 9 кадров
Идентификатор кодека : V_MPEG4/ISO/AVC
Продолжительность : 26 м. 20 с.
Битрейт : 2000 Кбит/сек
Ширина : 1024 пикселя
Высота : 576 пикселей
Соотношение сторон : 16:9
Режим частоты кадров : Постоянный
Частота кадров : 25,000 кадров/сек
Цветовое пространство : YUV
Субдискретизация насыщенности : 4:2:0
Битовая глубина : 8 бит
Тип развёртки : Прогрессивная
Бит/(Пиксели*Кадры) : 0.136
Размер потока : 369 Мбайт (89%)
Библиотека кодирования : x264 core 146 r2538 121396c
Настройки программы : cabac=1 / ref=9 / deblock=1:-2:-1 / analyse=0x3:0x133 / me=umh / subme=9 / psy=1 / psy_rd=1.00:0.15 / mixed_ref=1 / me_range=32 / chroma_me=1 / trellis=2 / 8x8dct=1 / cqm=0 / deadzone=21,11 / fast_pskip=0 / chroma_qp_offset=-3 / threads=18 / lookahead_threads=3 / sliced_threads=0 / nr=0 / decimate=1 / interlaced=0 / bluray_compat=0 / constrained_intra=0 / bframes=9 / b_pyramid=2 / b_adapt=2 / b_bias=0 / direct=1 / weightb=1 / open_gop=0 / weightp=2 / keyint=250 / keyint_min=25 / scenecut=40 / intra_refresh=0 / rc=2pass / mbtree=0 / bitrate=2000 / ratetol=1.0 / qcomp=0.60 / qpmin=0 / qpmax=69 / qpstep=4 / cplxblur=20.0 / qblur=0.5 / ip_ratio=1.40 / pb_ratio=1.30 / aq=2:1.00
Default : Да
Forced : Нет
Цветовой диапазон : Limited
Основные цвета : BT.709
Характеристики трансфера : BT.709
Коэффициенты матрицы : BT.709

Аудио
Идентификатор : 2
Формат : AC-3
Формат/Информация : Audio Coding 3
Коммерческое название : Dolby Digital
Идентификатор кодека : A_AC3
Продолжительность : 26 м. 20 с.
Вид битрейта : Постоянный
Битрейт : 192 Кбит/сек
Каналы : 2 канала
ChannelLayout : L R
Частота : 48,0 КГц
Частота кадров : 31,250 кадров/сек (1536 SPF)
Метод сжатия : С потерями
Размер потока : 36,2 Мбайт (9%)
ServiceKind/String : Complete Main
Default : Да
Forced : Нет






   Похожие торренты   Торрент   Размер 
В этой теме нет новых непрочитанных сообщений. Старец (1-4 серии) (Борис Невзоров) [2019, драма, WEBRip-AVC]

4 | 1

1.2 ГБ

В этой теме нет новых непрочитанных сообщений. Старец (1-6 серии) (Борис Невзоров) [2019, драма, WEBRip-AVC]

3 | 1

1.76 ГБ

В этой теме нет новых непрочитанных сообщений. Старец (1-12 серии) (Борис Невзоров) [2019, драма, WEBRip-AVC]

6 | 4

3.48 ГБ

В этой теме нет новых непрочитанных сообщений. Старец (1-8 серии) (Борис Невзоров) [2019, драма, WEBRip-AVC]

0 | 0

2.34 ГБ

В этой теме нет новых непрочитанных сообщений. Старец (1-13 серии) (Борис Невзоров) [2019, драма, WEBRip-AVC]

12 | 4

3.78 ГБ

В этой теме нет новых непрочитанных сообщений. Старец (1-2 серии) (Борис Невзоров) [2019, драма, WEBRip-AVC]

0 | 0

637.39 МБ

В этой теме нет новых непрочитанных сообщений. Старец (1-14 серии) (Борис Невзоров) [2019, драма, WEBRip-AVC]

6 | 7

4.04 ГБ




Вы не можете начинать темы
Вы не можете отвечать на сообщения
Вы не можете редактировать свои сообщения
Вы не можете удалять свои сообщения
Вы не можете добавлять вложения

Перейти:  
 Вход
ppkBB3cker v.2 © 2008-2014 @ PPK
[ Time : 0.028s | 18 Queries | GZIP : Off ]

cron