img image001 image001 image001 image001 image001 image001 image001 image001 image001 image001 image001 image001 image001 image001 image001

Planets Sun Sun Sun
Статистика раздачи
Автор: Снежана | Размер: 12.58 ГБ | Добавлен: 02 дек 2019
Раздают: 30    Качают: 5
Скачать торрент
Скачать торрент
Описание торрента

СообщениеДобавлено: 02 дек 2019 

Судья (1-8 серии из 8)

Перевод: Не требуется, cубтитры: отсутствуют
Формат: WEBRip 1080p, MKV, H.264, AC3
Страна: Украина
Режиссер: Антон Щербаков
Жанр: детектив, криминал
Всего серий: 8
Продолжительность: 8 х 00:43:05
Год выпуска: 2019

В ролях: Александр Константинов, Оксана Жданова, Роза Хайруллина, Николай Боклан, Владимир Ращук, Сергей Басок, Вячеслав Гиндин, Сергей Деньга, Даниил Белых, Дмитрий Сарансков, Виктор Жданов, Ирина Веренич-Островская, Сергей Бережко, Галина Корнеева, Ирина Малыгина, Артем Вильбик, Мария Кочур, Денис Шевченко (II), Всеволод Шекита, Олег Щербина (II), Виктор Полторацкий, Валерий Легин, Сергей Кисель, Виктор Семирозуменко, Захар Шадрин, Тимофей Скрипник, Илья Корман, Лилия Цвеликова, Владимир Барабанов (II), Инна Приходько, Елена Новикова (III), Оксана Черкашина, Евгений Рачок, Ольга Мороз, Артём Поддубняк, Николай Данилюк (II), Александра Польгуй, Константин Данилюк, Александр Лищинский, Евгений Черников, Миша Шостак, Андрей Алёхин, Александр Яценко (II), Вячеслав Бабенков (II), Александр Ясинский, Тимофей Криницкий, Константин Мороз (II), Александр Логинов, Юрий Фреган, Денис Драчевский, Анжелика Лунева, Михаил Климченко, Дарья Виниченко, Вадим Лялько, Олег Шевцов

Описание: С тех пор, как в городе появился загадочный Судья, все знают: виновник ненаказанного преступления будет найден и казнен. Жестко, зачастую жестоко – не в соответствии с Уголовным Кодексом, а в соответствии с библейским законом «око за око, зуб за зуб». Единственное, чего не знает никто: кто же такой этот Судья. Не знает этого и капитан полиции Денис Чернышов. Но считает делом чести – найти и посадить его. И хоть в душе, капитан считает, что Судья действует по справедливости, но по законам государства народный мститель – преступник, занимающийся самосудом. Хочет найти Судью и любимая девушка Дениса, начинающая журналистка Ирина. Чтобы написать обо всем книгу. Но поиск Судьи – дело непростое. Тот не оставляет на месте своих казней ни одной зацепки для расследования. И никто даже не подозревает, что таинственный Судья совсем близко, у всех на виду.

Рейтинг и доп. информация:


Видео: 1920x1080, (16:9), 25 fps, AVC MPEG-4 (x264), ~ 5000 kbps , 0.096 bit/pixel
Аудио: 48 kHz, AC3, 2/0 (L,R) ch, ~192 kbps
Общее
Уникальный идентификатор : 138374303559306156221873196333309153427 (0x6819EBE5D78976C5F91F25A246E4D093)
Полное имя : C:\Судья.s01.(2019).WEBRip (1080p).by.Nicodem.Files-x\01.Судья.s01.E01.(2019).WEBRip (1080p).by.Nicodem.Files-x.mkv
Формат : Matroska
Версия формата : Version 4
Размер файла : 1,56 Гбайт
Продолжительность : 43 м. 5 с.
Режим общего битрейта : Постоянный
Общий поток : 5191 Кбит/сек
Программа кодирования : Lavf56.36.100
Библиотека кодирования : Lavf56.36.100

Видео
Идентификатор : 1
Формат : AVC
Формат/Информация : Advanced Video Codec
Профиль формата :
Настройки формата : 2 Ref Frames
Параметр CABAC формата : Нет
Параметр RefFrames формата : 2 кадра
Идентификатор кодека : V_MPEG4/ISO/AVC
Продолжительность : 43 м. 5 с.
Вид битрейта : Постоянный
Битрейт : 5000 Кбит/сек
Ширина : 1920 пикселей
Высота : 1080 пикселей
Соотношение сторон : 16:9
Режим частоты кадров : Постоянный
Частота кадров : 25,000 кадров/сек
Стандарт вещания : PAL
Цветовое пространство : YUV
Субдискретизация насыщенности : 4:2:0
Битовая глубина : 8 бит
Тип развёртки : Прогрессивная
Бит/(Пиксели*Кадры) : 0.096
Размер потока : 1,47 Гбайт (94%)
Default : Да
Forced : Нет
Цветовой диапазон : Limited
Основные цвета : BT.709
Характеристики трансфера : BT.709
Коэффициенты матрицы : BT.709

Аудио
Идентификатор : 2
Формат : AC-3
Формат/Информация : Audio Coding 3
Коммерческое название : Dolby Digital
Идентификатор кодека : A_AC3
Продолжительность : 43 м. 5 с.
Вид битрейта : Постоянный
Битрейт : 192 Кбит/сек
Каналы : 2 канала
ChannelLayout : L R
Частота : 48,0 КГц
Частота кадров : 31,250 кадров/сек (1536 SPF)
Метод сжатия : С потерями
Задержка видео : -40 мс.
Размер потока : 59,2 Мбайт (4%)
Язык : unknown
ServiceKind/String : Complete Main
Default : Да
Forced : Нет














   Похожие торренты   Торрент   Размер 
В этой теме нет новых непрочитанных сообщений. Судья (1-8 серии из 8) (Антон Щербаков) [2019, детектив, криминал, WEBRip]

38 | 4

4.35 ГБ

В этой теме нет новых непрочитанных сообщений. Судья (1-4 серии из 8) (Антон Щербаков) [2019, детектив, криминал, WEBRip]

41 | 13

2.18 ГБ

В этой теме нет новых непрочитанных сообщений. Судья (1-2 серии из 8) (Антон Щербаков) [2019, детектив, криминал, WEBRip]

48 | 5

1.09 ГБ

В этой теме нет новых непрочитанных сообщений. Судья (1-8 серии из 8) (Антон Щербаков) [2019, детектив, криминал, WEBRip]

56 | 8

4.3 ГБ

В этой теме нет новых непрочитанных сообщений. Судья (1-6 серии из 8) (Антон Щербаков) [2019, детектив, криминал, WEBRip]

41 | 15

3.26 ГБ

В этой теме нет новых непрочитанных сообщений. Судья (1-6 серии из 8) (Антон Щербаков) [2019, детектив, криминал, WEBRip-AVC]

9 | 3

3.26 ГБ

В этой теме нет новых непрочитанных сообщений. Судья (1-4 серии из 8) (Антон Щербаков) [2019, детектив, криминал, WEBRip-AVC]

28 | 11

2.17 ГБ




Вы не можете начинать темы
Вы не можете отвечать на сообщения
Вы не можете редактировать свои сообщения
Вы не можете удалять свои сообщения
Вы не можете добавлять вложения

Перейти:  
 Вход
ppkBB3cker v.2 © 2008-2014 @ PPK
[ Time : 0.027s | 16 Queries | GZIP : Off ]

cron