img image001 image001 image001 image001 image001 image001 image001 image001 image001 image001 image001 image001 image001 image001 image001

Planets Sun Sun Sun
Статистика раздачи
Автор: Снежана | Размер: 13.24 ГБ | Добавлен: 02 дек 2019
Раздают: 15    Качают: 6
Скачать торрент
Скачать торрент
Описание торрента

СообщениеДобавлено: 02 дек 2019 

Линии судьбы (1-24 серии из 24)

Перевод: Не требуется, cубтитры: отсутствуют
Формат: WEBRip-AVC, MKV, H.264, AC3
Страна: Россия
Режиссер: Дмитрий Месхиев
Жанр: драма, мелодрама, детектив
Всего серий: 24
Продолжительность: 24 x ~ 00:45:00
Год выпуска: 2003

В ролях: Валентина Талызина, Ирина Розанова, Сергей Гармаш, Константин Хабенский, Наталья Суркова, Татьяна Колганова, Леонид Громов, Андрей Краско, Наталья Терехова, Андрей Кузичёв, Алексей Горбунов, Зоя Буряк, Артур Ваха, Виталий Любский, Анастасия Курза, Михаил Пореченков, Марина Солопченко, Манана Гогитидзе, Николай Чиндяйкин, Татьяна Ткач, Михаил Трясоруков, Зинаида Шарко, Евгений Дятлов, Юрий Зайцев (II), Александр Тютрюмов, Галина Бокашевская, Андрей Зибров, Виктор Шубин, Павел Бадыров, Вероника Дмитриева, Лариса Мурзина, Захар Ронжин, Елена Симонова, Татьяна Бедова, Сергей Васильев (V), Елена Дятлова, Дмитрий Месхиев, Ксения Коробчанская, Юлия Просянникова, Екатерина Онегина, Борис Соколов, Виталий Сергеев, Лариса Мочалина, Александр Резник, Андрей Чабан, Ирина Ракшина, Вадим Гущин, Герман Орлов, Андрей Дежонов, Олег Покровский, Марина Гладкая, Олег Веклич, Виталий Павлов, Алексей Титков, Татьяна Орлова, Виктор Митрофанов, Регина Щукина, Роман Трахтенберг

Описание: Сериал построен по принципу рокового кроссворда – много героев (все отечественные "звёзды"), несколько сюжетных линий, и все они, как выясняется при просмотре, тесно связаны. История о судьбах приезжих и столичных жителях. О том, как люди, приезжающие в Большой город, пытаются устроить свою жизнь. У кого-то из них это получается легко и просто, у кого-то рушатся все надежды. Наши герои приехали вместе и пока «равны перед столицей». И конечно, даже представить не могут, что ждет каждого из них всего через пару месяцев...

Рейтинг и доп. информация:


Видео: 704x468@750x468, (16:10), 25 fps, AVC MPEG-4 (x264), High@L3 ~ 1600 kbps , 0.194 bit/pixel
Аудио: 48 kHz, АС3, 2/0 (L,R), ~192 kbps avg
Общее
Уникальный идентификатор : 192394521300665313203114217853739359525 (0x90BDD643B992DD53812A57B2AE105D25)
Полное имя : C:\Линии судьбы\Линии судьбы (01 сер.).mkv
Формат : Matroska
Версия формата : Version 2
Размер файла : 565 Мбайт
Продолжительность : 44 м. 2 с.
Общий поток : 1794 Кбит/сек
Дата кодирования : UTC 2019-11-27 15:20:29
Программа кодирования : mkvmerge v7.8.0 (''River Man'') 32bit built on Apr 3 2015 12:11:22
Библиотека кодирования : libebml v1.3.1 + libmatroska v1.4.2

Видео
Идентификатор : 1
Формат : AVC
Формат/Информация : Advanced Video Codec
Профиль формата : High@L3
Настройки формата : CABAC / 6 Ref Frames
Параметр CABAC формата : Да
Параметр RefFrames формата : 6 кадров
Идентификатор кодека : V_MPEG4/ISO/AVC
Продолжительность : 44 м. 2 с.
Битрейт : 1600 Кбит/сек
Ширина : 704 пикселя
Высота : 468 пикселей
Соотношение сторон : 16:10
Режим частоты кадров : Постоянный
Частота кадров : 25,000 кадров/сек
Цветовое пространство : YUV
Субдискретизация насыщенности : 4:2:0
Битовая глубина : 8 бит
Тип развёртки : Прогрессивная
Бит/(Пиксели*Кадры) : 0.194
Размер потока : 493 Мбайт (87%)
Библиотека кодирования : x264 core 157 r2935 545de2f
Настройки программы : cabac=1 / ref=6 / deblock=1:0:0 / analyse=0x3:0x113 / me=umh / subme=8 / psy=1 / psy_rd=1.00:0.00 / mixed_ref=1 / me_range=24 / chroma_me=1 / trellis=1 / 8x8dct=1 / cqm=0 / deadzone=21,11 / fast_pskip=1 / chroma_qp_offset=-2 / threads=4 / lookahead_threads=1 / sliced_threads=0 / nr=0 / decimate=1 / interlaced=0 / bluray_compat=0 / stitchable=1 / constrained_intra=0 / bframes=6 / b_pyramid=2 / b_adapt=1 / b_bias=0 / direct=3 / weightb=1 / open_gop=0 / weightp=2 / keyint=250 / keyint_min=25 / scenecut=40 / intra_refresh=0 / rc_lookahead=40 / rc=2pass / mbtree=1 / bitrate=1600 / ratetol=1.0 / qcomp=0.60 / qpmin=0 / qpmax=69 / qpstep=4 / cplxblur=20.0 / qblur=0.5 / ip_ratio=1.40 / aq=1:1.00
Default : Да
Forced : Нет

Аудио
Идентификатор : 2
Формат : AC-3
Формат/Информация : Audio Coding 3
Коммерческое название : Dolby Digital
Идентификатор кодека : A_AC3
Продолжительность : 44 м. 2 с.
Вид битрейта : Постоянный
Битрейт : 192 Кбит/сек
Каналы : 2 канала
ChannelLayout : L R
Частота : 48,0 КГц
Частота кадров : 31,250 кадров/сек (1536 SPF)
Метод сжатия : С потерями
Размер потока : 60,5 Мбайт (11%)
ServiceKind/String : Complete Main
Default : Да
Forced : Нет








   Похожие торренты   Торрент   Размер 
В этой теме нет новых непрочитанных сообщений. Наследники (1-6 серии из 16) (Дмитрий Матов) [2019, криминал, детектив, мелодрама, WEBRip-AVC]

5 | 0

3.35 ГБ

В этой теме нет новых непрочитанных сообщений. Наследники (1-4 серии из 16) (Дмитрий Матов) [2019, криминал, детектив, мелодрама, WEBRip-AVC]

15 | 3

2.23 ГБ

В этой теме нет новых непрочитанных сообщений. Наследники (1-8 серии из 16) (Дмитрий Матов) [2019, криминал, детектив, мелодрама, WEBRip-AVC]

17 | 3

4.46 ГБ

В этой теме нет новых непрочитанных сообщений. Я всё решу сама (1-12 серии из 12) (Татьяна Мельникова) [2003, драма, мелодрама, WEBRip-AVC]

8 | 0

7.54 ГБ

В этой теме нет новых непрочитанных сообщений. Два билета домой / Преданные (Дмитрий Месхиев) [2018, драма, мелодрама, WEB-DLRip-AVC] / Драмы

25 | 0

1.43 ГБ

В этой теме нет новых непрочитанных сообщений. Два билета домой / Преданные (Дмитрий Месхиев) [2018, драма, мелодрама, WEB-DLRip] / Драмы

6 | 0

747.15 МБ

В этой теме нет новых непрочитанных сообщений. Два билета домой / Преданные (Дмитрий Месхиев) [2018, драма, мелодрама, WEB-DL 720p] / Драмы

8 | 0

1.81 ГБ




Вы не можете начинать темы
Вы не можете отвечать на сообщения
Вы не можете редактировать свои сообщения
Вы не можете удалять свои сообщения
Вы не можете добавлять вложения

Перейти:  
 Вход
ppkBB3cker v.2 © 2008-2014 @ PPK
[ Time : 0.034s | 18 Queries | GZIP : Off ]

cron