img image001 image001 image001 image001 image001 image001 image001 image001 image001 image001 image001 image001 image001 image001 image001

Planets Sun Sun Sun
Статистика раздачи
Автор: Снежана | Размер: 4.48 ГБ | Добавлен: 02 дек 2019
Раздают: 258    Качают: 212
Скачать торрент
Скачать торрент
Описание торрента

СообщениеДобавлено: 02 дек 2019 

Кухня. Война за отель (1-5 серии из 13)

Перевод: Не требуется, cубтитры: отсутствуют
Формат: WEB-DL 1080p, MKV, H.264, AC3
Страна: Россия
Режиссер: Евгений Шелякин
Жанр: комедия
Всего серий: 13
Продолжительность: 1 х ~ 00:50:00; 3 х ~ 00:25:00
Год выпуска: 2019

В ролях: Дмитрий Нагиев, Дмитрий Назаров, Фёдор Бондарчук, Елена Ксенофонтова, Григорий Сиятвинда, Марина Могилевская, Валерия Федорович, Михаил Башкатов, Мария Ульянова, Владислав Ценёв, Алексей Пивоваров, Анастасия Сомова, Евгения Ярушникова, Юлия Франц, Алексей Муромцев, Василиса Немцова, Александр Гох, Андрей Пынзару, Игорь Кистол, Катрин Асси, Надежда Иванова, Екатерина Агеева, Алим Хоконов, Екатерина Владимирова, Антон Быстряков, Владимир Терещенко, Илья Кулешов, Анатолий Бурносов, Фаридуншо Рахматуллоев, Ольга Сопова, Андрей Козлов

Описание: Потерпев фиаско в гостиничном бизнесе и попрощавшись с отелем Eleon, Элеонора (Елена Ксенофонтова) уединяется в Тоскане. Всё меняется, когда виновный в её банкротстве экс-жених Дмитрий Нагиев приступает к строительству грандиозного комплекса «Курортище» в Сочи. Чтобы отомстить шоумену за все обиды, Элеонора покупает гостиницу, на которую положил глаз Нагиев, нанимает бывшего мужа, шеф-повара Виктора Баринова (Дмитрий Назаров), их дочку Катю (Валерия Федорович) и управляющего Михаила Джековича (Григорий Сиятвинда).

Рейтинг и доп. информация:


Видео: 1920x1080, (16:9), 25 fps, AVC MPEG-4 (x264), ~ 5000 kbps , 0.096 bit/pixel
Аудио: 48 kHz, AC3 Dolby Digital, 2/0 (L,R) ch, ~192 kbps
Внимание! Раздача ведётся путём добавления новых серий. При каждом добавлении создаётся новый торрент.
Чтобы начать докачку новой серии, пользователям необходимо сделать следующее:
1. Остановить скачивание.
2. Удалить старый торрент у себя из клиента (старые серии удалять не надо).
3. Скачать новый торрент и запустить его у себя в клиенте вместо старого, при этом указать клиенту путь в старую папку куда и должно происходить скачивание новых серий. Ваш клиент при этом должен произвести хеширование (проверку) старой папки и будет докачивать только те серии, которых у вас ещё нет. Старые серии при этом не удаляются, а продолжают раздаваться! Eсли вы уже удалили старые серии, то предотвратить повторную закачку старых серий можно, отжав галочку в соответствующих местах при запуске нового торрента.


Общее
Уникальный идентификатор : 191984909508065023394911667255935148178 (0x906EF2D80D8AD02788B1972820A6A092)
Полное имя : C:\Kuhnya.voina.za.otel.S01.2019.WEB-DL.(1080p).Getty\Kuhnya.voina.za.otel.s01e01-02.2019.WEB-DL.(1080p).Getty.mkv
Формат : Matroska
Версия формата : Version 2
Размер файла : 1,80 Гбайт
Продолжительность : 49 м. 51 с.
Режим общего битрейта : Переменный
Общий поток : 53577 Кбит/сек
Дата кодирования : UTC 2019-11-27 16:18:05
Программа кодирования : mkvmerge v4.0.0 (''The Stars were mine'') сборка от Jun 6 2010 16:18:42
Библиотека кодирования : libebml v1.0.0 + libmatroska v1.0.0

Видео
Идентификатор : 1
Формат : AVC
Формат/Информация : Advanced Video Codec
Профиль формата :
Настройки формата : CABAC / 5 Ref Frames
Параметр CABAC формата : Да
Параметр RefFrames формата : 5 кадров
Идентификатор кодека : V_MPEG4/ISO/AVC
Продолжительность : 49 м. 51 с.
Вид битрейта : Переменный
Битрейт : 5000 Кбит/сек
Максимальный битрейт : 40,0 Мбит/сек
Ширина : 1920 пикселей
Высота : 1080 пикселей
Соотношение сторон : 16:9
Режим частоты кадров : Постоянный
Частота кадров : 25,000 кадров/сек
Цветовое пространство : YUV
Субдискретизация насыщенности : 4:2:0
Битовая глубина : 8 бит
Тип развёртки : Прогрессивная
Бит/(Пиксели*Кадры) : 0.096
Размер потока : 1,70 Гбайт (94%)
Язык : Russian
Default : Да
Forced : Нет
Цветовой диапазон : Limited
Основные цвета : BT.709
Характеристики трансфера : BT.709
Коэффициенты матрицы : BT.709

Аудио
Идентификатор : 2
Формат : AC-3
Формат/Информация : Audio Coding 3
Коммерческое название : Dolby Digital
Идентификатор кодека : A_AC3
Продолжительность : 49 м. 51 с.
Вид битрейта : Постоянный
Битрейт : 192 Кбит/сек
Каналы : 2 канала
ChannelLayout : L R
Частота : 48,0 КГц
Частота кадров : 31,250 кадров/сек (1536 SPF)
Метод сжатия : С потерями
Размер потока : 68,5 Мбайт (4%)
Язык : Russian
ServiceKind/String : Complete Main
Default : Да
Forced : Нет






   Похожие торренты   Торрент   Размер 
В этой теме нет новых непрочитанных сообщений. Кухня. Война за отель (1-6 серии из 13) (Евгений Шелякин) [2019, комедия, WEB-DL 1080p]

60 | 72

5.37 ГБ

В этой теме нет новых непрочитанных сообщений. Кухня. Война за отель (1-2 серии из 13) (Евгений Шелякин) [2019, комедия, WEB-DL 1080p]

102 | 0

1.8 ГБ

В этой теме нет новых непрочитанных сообщений. Кухня. Война за отель (1-3 серии из 13) (Евгений Шелякин) [2019, комедия, WEB-DL 1080p]

46 | 10

2.7 ГБ

В этой теме нет новых непрочитанных сообщений. Кухня. Война за отель (1-7 серии из 13) (Евгений Шелякин) [2019, комедия, WEB-DL 1080p]

35 | 11

6.27 ГБ

В этой теме нет новых непрочитанных сообщений. Кухня. Война за отель (1-5 серии из 13) (Евгений Шелякин) [2019, комедия, WEB-DLRip]

64 | 31

1.53 ГБ

В этой теме нет новых непрочитанных сообщений. Кухня. Война за отель (1-2 серии из 13) (Евгений Шелякин) [2019, комедия, WEB-DLRip]

24 | 2

660.25 МБ

В этой теме нет новых непрочитанных сообщений. Кухня. Война за отель (1-7 серии из 13) (Евгений Шелякин) [2019, комедия, WEB-DLRip]

23 | 37

2.11 ГБ




Вы не можете начинать темы
Вы не можете отвечать на сообщения
Вы не можете редактировать свои сообщения
Вы не можете удалять свои сообщения
Вы не можете добавлять вложения

Перейти:  
 Вход
ppkBB3cker v.2 © 2008-2014 @ PPK
[ Time : 0.024s | 16 Queries | GZIP : Off ]

cron