img image001 image001 image001 image001 image001 image001 image001 image001 image001 image001 image001 image001 image001 image001 image001

Planets Sun Sun Sun
Статистика раздачи
Автор: Снежана | Размер: 1.89 ГБ | Добавлен: 02 дек 2019
Раздают: 63    Качают: 37
Скачать торрент
Скачать торрент
Описание торрента

СообщениеДобавлено: 02 дек 2019 

Кухня. Война за отель (1-5 серии из 13)

Перевод: Не требуется, cубтитры: отсутствуют
Формат: WEB-DLRip-AVC, MKV, H.264, AC3
Страна: Россия
Режиссер: Евгений Шелякин
Жанр: комедия
Всего серий: 13
Продолжительность: 1 х ~ 00:50:00; 3 х ~ 00:25:00
Год выпуска: 2019

В ролях: Дмитрий Нагиев, Дмитрий Назаров, Елена Ксенофонтова, Григорий Сиятвинда, Валерия Федорович, Михаил Башкатов, Виктор Хориняк, Ольга Кузьмина, Василиса Немцова, Ирина Темичева, Мария Ульянова, Борис Дергачев, Гурам Баблишвили, Александр Ляпин, Алексей Гришин, Алина Алексеева (II), Владислав Ценёв, Николай Лунин (II)

Описание: Потерпев фиаско в гостиничном бизнесе и попрощавшись с отелем Eleon, Элеонора (Елена Ксенофонтова) уединяется в Тоскане. Всё меняется, когда виновный в её банкротстве экс-жених Дмитрий Нагиев приступает к строительству грандиозного комплекса «Курортище» в Сочи. Чтобы отомстить шоумену за все обиды, Элеонора покупает гостиницу, на которую положил глаз Нагиев, нанимает бывшего мужа, шеф-повара Виктора Баринова (Дмитрий Назаров), их дочку Катю (Валерия Федорович) и управляющего Михаила Джековича (Григорий Сиятвинда).

Рейтинг и доп. информация:


Видео: 1024x576, (16:9), 25 fps, AVC MPEG-4 (x264), ~ 2000 kbps , 0.136 bit/pixel
Аудио: 48 kHz, AC3, 2/0 (L,R) ch, ~192 kbps
Внимание! Раздача ведётся путём добавления новых серий. При каждом добавлении создаётся новый торрент.
Чтобы начать докачку новой серии, пользователям необходимо сделать следующее:
1. Остановить скачивание.
2. Удалить старый торрент у себя из клиента (старые серии удалять не надо).
3. Скачать новый торрент и запустить его у себя в клиенте вместо старого, при этом указать клиенту путь в старую папку куда и должно происходить скачивание новых серий. Ваш клиент при этом должен произвести хеширование (проверку) старой папки и будет докачивать только те серии, которых у вас ещё нет. Старые серии при этом не удаляются, а продолжают раздаваться! Eсли вы уже удалили старые серии, то предотвратить повторную закачку старых серий можно, отжав галочку в соответствующих местах при запуске нового торрента.


Общее
Уникальный идентификатор : 230363666565582738236153209430786282937 (0xAD4E6DA897602683A8508ED509B195B9)
Полное имя : C:\Kuhnya.voina.za.otel.S01.2019.WEB-DLRip.(AVC).ExKinoRay\Kuhnya.voina.za.otel.S01.E01-02.2019.WEB-DLRip.(AVC).ExKinoRay.mkv
Формат : Matroska
Версия формата : Version 2
Размер файла : 779 Мбайт
Продолжительность : 49 м. 50 с.
Общий поток : 2184 Кбит/сек
Дата кодирования : UTC 2019-11-27 17:32:45
Программа кодирования : mkvmerge v7.8.0 (''River Man'') 32bit built on Apr 3 2015 12:11:22
Библиотека кодирования : libebml v1.3.1 + libmatroska v1.4.2

Видео
Идентификатор : 1
Формат : AVC
Формат/Информация : Advanced Video Codec
Профиль формата :
Настройки формата : CABAC / 10 Ref Frames
Параметр CABAC формата : Да
Параметр RefFrames формата : 10 кадров
Идентификатор кодека : V_MPEG4/ISO/AVC
Продолжительность : 49 м. 50 с.
Битрейт : 2000 Кбит/сек
Ширина : 1024 пикселя
Высота : 576 пикселей
Соотношение сторон : 16:9
Режим частоты кадров : Постоянный
Частота кадров : 25,000 кадров/сек
Цветовое пространство : YUV
Субдискретизация насыщенности : 4:2:0
Битовая глубина : 8 бит
Тип развёртки : Прогрессивная
Бит/(Пиксели*Кадры) : 0.136
Размер потока : 695 Мбайт (89%)
Библиотека кодирования : x264 core 146 r2538 121396c
Настройки программы : cabac=1 / ref=10 / deblock=1:-3:-3 / analyse=0x3:0x113 / me=umh / subme=11 / psy=1 / psy_rd=1.00:0.20 / mixed_ref=1 / me_range=32 / chroma_me=1 / trellis=2 / 8x8dct=1 / cqm=0 / deadzone=21,11 / fast_pskip=1 / chroma_qp_offset=-3 / threads=24 / lookahead_threads=9 / sliced_threads=0 / nr=0 / decimate=0 / interlaced=0 / bluray_compat=0 / constrained_intra=0 / bframes=12 / b_pyramid=2 / b_adapt=2 / b_bias=0 / direct=3 / weightb=1 / open_gop=0 / weightp=2 / keyint=250 / keyint_min=25 / scenecut=40 / intra_refresh=0 / rc_lookahead=60 / rc=2pass / mbtree=1 / bitrate=2000 / ratetol=1.0 / qcomp=0.60 / qpmin=0 / qpmax=69 / qpstep=4 / cplxblur=20.0 / qblur=0.5 / vbv_maxrate=14000 / vbv_bufsize=14000 / nal_hrd=none / filler=0 / ip_ratio=1.40 / aq=3:1.40
Default : Да
Forced : Нет
Цветовой диапазон : Limited
Основные цвета : BT.709
Характеристики трансфера : BT.709
Коэффициенты матрицы : BT.709

Аудио
Идентификатор : 2
Формат : AC-3
Формат/Информация : Audio Coding 3
Коммерческое название : Dolby Digital
Идентификатор кодека : A_AC3
Продолжительность : 49 м. 50 с.
Вид битрейта : Постоянный
Битрейт : 192 Кбит/сек
Каналы : 2 канала
ChannelLayout : L R
Частота : 48,0 КГц
Частота кадров : 31,250 кадров/сек (1536 SPF)
Метод сжатия : С потерями
Размер потока : 68,5 Мбайт (9%)
ServiceKind/String : Complete Main
Default : Да
Forced : Нет






   Похожие торренты   Торрент   Размер 
В этой теме нет новых непрочитанных сообщений. Кухня. Война за отель (1-6 серии из 13) (Евгений Шелякин) [2019, комедия, WEB-DLRip-AVC]

24 | 40

2.27 ГБ

В этой теме нет новых непрочитанных сообщений. Кухня. Война за отель (1-2 серии из 13) (Евгений Шелякин) [2019, комедия, WEB-DLRip-AVC]

8 | 0

778.57 МБ

В этой теме нет новых непрочитанных сообщений. Кухня. Война за отель (1-7 серии из 13) (Евгений Шелякин) [2019, комедия, WEB-DLRip-AVC]

14 | 10

2.65 ГБ

В этой теме нет новых непрочитанных сообщений. Кухня. Война за отель (1-3 серии из 13) (Евгений Шелякин) [2019, комедия, WEB-DLRip-AVC]

14 | 3

1.14 ГБ

В этой теме нет новых непрочитанных сообщений. Кухня. Война за отель (1-2 серии из 13) (Евгений Шелякин) [2019, комедия, WEB-DLRip]

24 | 2

660.25 МБ

В этой теме нет новых непрочитанных сообщений. Кухня. Война за отель (1-7 серии из 13) (Евгений Шелякин) [2019, комедия, WEB-DLRip]

23 | 37

2.11 ГБ

В этой теме нет новых непрочитанных сообщений. Кухня. Война за отель (1-3 серии из 13) (Евгений Шелякин) [2019, комедия, WEB-DLRip]

28 | 12

960.99 МБ




Вы не можете начинать темы
Вы не можете отвечать на сообщения
Вы не можете редактировать свои сообщения
Вы не можете удалять свои сообщения
Вы не можете добавлять вложения

Перейти:  
 Вход
ppkBB3cker v.2 © 2008-2014 @ PPK
[ Time : 0.039s | 16 Queries | GZIP : Off ]

cron