img image001 image001 image001 image001 image001 image001 image001 image001 image001 image001 image001 image001 image001 image001 image001

Planets Sun Sun Sun
Статистика раздачи
Автор: Снежана | Размер: 2.5 ГБ | Добавлен: 02 дек 2019
Раздают: 8    Качают: 0
Скачать торрент
Скачать торрент
Описание торрента

СообщениеДобавлено: 02 дек 2019 

Горе от ума (1-6 серии из 8)

Перевод: Не требуется, cубтитры: отсутствуют
Формат: WEB-DL 720p, MKV, H.264, AC3
Страна: Россия
Режиссер: Динар Гарипов
Жанр: драма
Всего серий: 8
Продолжительность: 6 x ~ 00:18:00
Год выпуска: 2019

В ролях: Фёдор Лавров, Павел Прилучный, Мария Кожевникова, Ольга Лерман, Игорь Угольников, Даниил Спиваковский, Сергей Юшкевич, Григорий Данцигер, Сергей Медведев, Михаил Горевой, Юлия Сулес, Дмитрий Воронин (II), Алексей Войтюк, Георгий Рюмин, Анна Цуканова-Котт, Субхан Мамедов SUBO, Максим Казанцев, Михаил Богдасаров, Даниил Никитин (II), Мари Марк (II) (Мария Прокопенко), Тагир Султанов, Зоя Мансурова

Описание: Погибает Чацкий – известный интернет-блогер с многомиллионной армией подписчиков. Следователю по особым делам – Порфирию Петрову – поручают в кратчайшие сроки выяснить все детали смерти Чацкого, т. к. его похороны могут спровоцировать общественные волнения и беспорядки. Выясняется, что Чацкий своими расследованиями и открытым хейтерством нажил себе довольно много врагов, каждый из которых становится подозреваемым в списке Порфирия. Усугубляет ситуацию смерть в прямом эфире блогера N2 – Базарова, а также пропажа из морга тела Чацкого. У Порфирия есть всего три дня, чтобы разобраться во всем происходящем в этом мире. А также в его виртуальной изнанке…

Рейтинг и доп. информация:


Видео: 1280х536, (2,40:1), 25 fps, AVC MPEG-4 (x264), ~ 3500 kbps , 0.204 bit/pixel
Аудио: 48 kHz, AC3, 2/0 (L,R) ch, ~192 kbps
Внимание! Раздача ведётся путём добавления новых серий. При каждом добавлении создаётся новый торрент.
Чтобы начать докачку новой серии, пользователям необходимо сделать следующее:
1. Остановить скачивание.
2. Удалить старый торрент у себя из клиента (старые серии удалять не надо).
3. Скачать новый торрент и запустить его у себя в клиенте вместо старого, при этом указать клиенту путь в старую папку куда и должно происходить скачивание новых серий. Ваш клиент при этом должен произвести хеширование (проверку) старой папки и будет докачивать только те серии, которых у вас ещё нет. Старые серии при этом не удаляются, а продолжают раздаваться! Eсли вы уже удалили старые серии, то предотвратить повторную закачку старых серий можно, отжав галочку в соответствующих местах при запуске нового торрента.


Реклама, любого вида, отсутствует.

Общее
Уникальный идентификатор : 173182932193698011458907299917166567418 (0x8249D1CA8BE093F6839782F29F3C5FFA)
Полное имя : C:\Gore.ot.Uma.2019.WEB-DL.(720p).ExKinoRay\Gore.ot.Uma.E01.2019.WEB-DL.(720p).ExKinoRay.mkv
Формат : Matroska
Версия формата : Version 4
Размер файла : 471 Мбайт
Продолжительность : 17 м. 31 с.
Общий поток : 3759 Кбит/сек
Дата кодирования : UTC 2019-11-28 16:40:01
Программа кодирования : mkvmerge v6.9.1 (''Blue Panther'') 64bit built on Apr 18 2014 18:23:38
Библиотека кодирования : libebml v1.3.0 + libmatroska v1.4.1

Видео
Идентификатор : 1
Формат : AVC
Формат/Информация : Advanced Video Codec
Профиль формата :
Настройки формата : CABAC / 9 Ref Frames
Параметр CABAC формата : Да
Параметр RefFrames формата : 9 кадров
Идентификатор кодека : V_MPEG4/ISO/AVC
Продолжительность : 17 м. 31 с.
Битрейт : 3500 Кбит/сек
Ширина : 1280 пикселей
Высота : 536 пикселей
Соотношение сторон : 2,40:1
Режим частоты кадров : Постоянный
Частота кадров : 25,000 кадров/сек
Цветовое пространство : YUV
Субдискретизация насыщенности : 4:2:0
Битовая глубина : 8 бит
Тип развёртки : Прогрессивная
Бит/(Пиксели*Кадры) : 0.204
Размер потока : 430 Мбайт (91%)
Библиотека кодирования : x264 core 146 r2538 121396c
Настройки программы : cabac=1 / ref=9 / deblock=1:-3:-3 / analyse=0x3:0x113 / me=umh / subme=11 / psy=1 / psy_rd=1.00:0.20 / mixed_ref=1 / me_range=32 / chroma_me=1 / trellis=2 / 8x8dct=1 / cqm=0 / deadzone=21,11 / fast_pskip=1 / chroma_qp_offset=-3 / threads=24 / lookahead_threads=8 / sliced_threads=0 / nr=0 / decimate=0 / interlaced=0 / bluray_compat=0 / constrained_intra=0 / bframes=11 / b_pyramid=2 / b_adapt=2 / b_bias=0 / direct=3 / weightb=1 / open_gop=0 / weightp=2 / keyint=250 / keyint_min=25 / scenecut=40 / intra_refresh=0 / rc_lookahead=60 / rc=2pass / mbtree=1 / bitrate=3500 / ratetol=1.0 / qcomp=0.60 / qpmin=0 / qpmax=69 / qpstep=4 / cplxblur=20.0 / qblur=0.5 / vbv_maxrate=14000 / vbv_bufsize=14000 / nal_hrd=none / filler=0 / ip_ratio=1.40 / aq=3:1.40
Default : Да
Forced : Нет
Цветовой диапазон : Limited
Основные цвета : BT.709
Характеристики трансфера : BT.709
Коэффициенты матрицы : BT.709

Аудио
Идентификатор : 2
Формат : AC-3
Формат/Информация : Audio Coding 3
Коммерческое название : Dolby Digital
Идентификатор кодека : A_AC3
Продолжительность : 17 м. 31 с.
Вид битрейта : Постоянный
Битрейт : 256 Кбит/сек
Каналы : 2 канала
ChannelLayout : L R
Частота : 48,0 КГц
Частота кадров : 31,250 кадров/сек (1536 SPF)
Метод сжатия : С потерями
Размер потока : 32,1 Мбайт (7%)
Язык : Russian
ServiceKind/String : Complete Main
Default : Да
Forced : Нет






   Похожие торренты   Торрент   Размер 
В этой теме нет новых непрочитанных сообщений. Горе от ума (1-7 серии из 8) (Динар Гарипов) [2019, драма, WEB-DL 720p]

14 | 2

2.84 ГБ

В этой теме нет новых непрочитанных сообщений. Горе от ума (1-2 серии из 8) (Динар Гарипов) [2019, драма, WEB-DL 720p]

0 | 0

926.34 МБ

В этой теме нет новых непрочитанных сообщений. Горе от ума (1-8 серии из 8) (Динар Гарипов) [2019, драма, WEB-DL 720p]

53 | 11

3.17 ГБ

В этой теме нет новых непрочитанных сообщений. Горе от ума (1-8 серии из 8) (Динар Гарипов) [2019, драма, WEB-DLRip]

32 | 8

1.62 ГБ

В этой теме нет новых непрочитанных сообщений. Горе от ума (1-7 серии из 8) (Динар Гарипов) [2019, драма, WEB-DLRip]

19 | 4

1.44 ГБ

В этой теме нет новых непрочитанных сообщений. Горе от ума (1-5 серии из 8) (Динар Гарипов) [2019, драма, WEB-DLRip]

3 | 2

1.08 ГБ

В этой теме нет новых непрочитанных сообщений. Горе от ума (1-6 серии из 8) (Динар Гарипов) [2019, драма, WEB-DLRip]

10 | 6

1.27 ГБ




Вы не можете начинать темы
Вы не можете отвечать на сообщения
Вы не можете редактировать свои сообщения
Вы не можете удалять свои сообщения
Вы не можете добавлять вложения

Перейти:  
 Вход
ppkBB3cker v.2 © 2008-2014 @ PPK
[ Time : 0.038s | 17 Queries | GZIP : Off ]

cron