img image001 image001 image001 image001 image001 image001 image001 image001 image001 image001 image001 image001 image001 image001 image001

Planets Sun Sun Sun

COVID-19 - Последняя информация о коронавирусе на сайте Минздрава | СИДИТЕ ДОМА!


Статистика раздачи
Автор: Снежана | Размер: 4.54 ГБ | Добавлен: 12 фев 2020
Раздают: 0    Качают: 0
Скачать торрент
Скачать торрент
Описание торрента

СообщениеДобавлено: 12 фев 2020 

Фитнес (3 сезон 1-6 серии из 20)

Перевод: Не требуется, cубтитры: отсутствуют
Формат: WEB-DL 1080p, MKV, H.264, AC3
Страна: Россия
Режиссер: Кирилл Васильев
Жанр: комедия
Всего серий: 20
Продолжительность: 6 х ~ 00:25:00
Год выпуска: 2020

В ролях: Софья Зайка, Борис Дергачев, Михаил Трухин, Роман Курцын, Татьяна Храмова (II), Евгений Михеев, Дмитрий Чеботарёв, Марианна Шульц, Алексей Демидов, Лёля Баранова, Илья Глинников, Светлана Камынина, Светлана Токарская, Кристина Юдичева, Пётр Королёв, Андрей Трушин, Елизавета Мартинес Карденас, Стефан Бузылёв, Алексей Карпов, Олег Евтеев, Сергей Рубашкин, Екатерина Щербакова, Кристина Кучеренко, Эвелина Блёданс, Евдокия Лаврухина, Евгения Ярушникова, Максим Деричев

Описание: Новая владелица «СуперФита» Бэлла Ринатовна берет управление клубом под жесткий контроль. Бескомпромиссная хозяйка похоронного бюро намерена извлечь из нового бизнеса максимум пользы. Поэтому в клубе стремительно меняются правила, а в зале внезапно появляется боксерский ринг. Именно на нем Асе Королевой предстоит побороться с Бэллой за судьбу клуба, а, возможно, и за свое будущее. И, похоже, у девушки почти нет шансов победить опытного спарринг-партнера. К счастью, в клубе появляется тренер по боксу, который готов подготовить Асю. Но вспыльчивый характер и поведение раздолбая очень быстро ставят работу тренера под угрозу.

Рейтинг и доп. информация:


Видео: 1024x576, (16:9), 25 fps, AVC MPEG-4 (x264), Baseline@L4 ~ 4500 kbps , 0.088 bit/pixel
Аудио: 48 kHz, AC3, 2/0 (L,R) ch, ~192 kbps
Внимание! Раздача ведётся путём добавления новых серий. При каждом добавлении создаётся новый торрент.
Чтобы начать докачку новой серии, пользователям необходимо сделать следующее:
1. Остановить скачивание.
2. Удалить старый торрент у себя из клиента (старые серии удалять не надо).
3. Скачать новый торрент и запустить его у себя в клиенте вместо старого, при этом указать клиенту путь в старую папку куда и должно происходить скачивание новых серий. Ваш клиент при этом должен произвести хеширование (проверку) старой папки и будет докачивать только те серии, которых у вас ещё нет. Старые серии при этом не удаляются, а продолжают раздаваться! Eсли вы уже удалили старые серии, то предотвратить повторную закачку старых серий можно, отжав галочку в соответствующих местах при запуске нового торрента.


Общее
Уникальный идентификатор : 205758549281455886626275404869658188797 (0x9ACBA7B71711033CAC8FC15FF0AB9BFD)
Полное имя : C:\Fitnes.S03.2020.WEB-DL.(1080p).Getty\Fitnes.s03e01.2020.WEB-DL.(1080p).Getty.mkv
Формат : Matroska
Версия формата : Version 4
Размер файла : 796 Мбайт
Продолжительность : 23 м. 56 с.
Режим общего битрейта : Переменный
Общий поток : 4647 Кбит/сек
Название фильма : Fitnes.s03e01.2020.WEB-DL.(1080p).Getty
Дата кодирования : UTC 2020-02-07 15:32:44
Программа кодирования : mkvmerge v7.8.0 (''River Man'') 32bit built on Mar 27 2015 16:18:02
Библиотека кодирования : libebml v1.3.1 + libmatroska v1.4.2

Видео
Идентификатор : 1
Формат : AVC
Формат/Информация : Advanced Video Codec
Профиль формата : High@L4
Настройки формата : CABAC / 1 Ref Frames
Параметр CABAC формата : Да
Параметр RefFrames формата : 1 кадр
Параметр GOP формата : M=1, N=50
Идентификатор кодека : V_MPEG4/ISO/AVC
Продолжительность : 23 м. 56 с.
Вид битрейта : Переменный
Битрейт : 4500 Кбит/сек
Максимальный битрейт : 4500 Кбит/сек
Ширина : 1920 пикселей
Высота : 1072 пикселя
Соотношение сторон : 16:9
Режим частоты кадров : Постоянный
Частота кадров : 25,000 кадров/сек
Цветовое пространство : YUV
Субдискретизация насыщенности : 4:2:0
Битовая глубина : 8 бит
Тип развёртки : Прогрессивная
Бит/(Пиксели*Кадры) : 0.087
Размер потока : 763 Мбайт (96%)
Default : Да
Forced : Нет

Аудио
Идентификатор : 2
Формат : AC-3
Формат/Информация : Audio Coding 3
Коммерческое название : Dolby Digital
Идентификатор кодека : A_AC3
Продолжительность : 23 м. 56 с.
Вид битрейта : Постоянный
Битрейт : 192 Кбит/сек
Каналы : 2 канала
ChannelLayout : L R
Частота : 48,0 КГц
Частота кадров : 31,250 кадров/сек (1536 SPF)
Метод сжатия : С потерями
Размер потока : 32,9 Мбайт (4%)
ServiceKind/String : Complete Main
Default : Да
Forced : Нет






   Похожие торренты   Торрент   Размер 
В этой теме нет новых непрочитанных сообщений. Фитнес (3 сезон 1-10 серии из 20) (Кирилл Васильев) [2020, комедия, WEB-DL 1080p]

4 | 1

7.57 ГБ

В этой теме нет новых непрочитанных сообщений. Фитнес (3 сезон 1-7 серии из 20) (Кирилл Васильев) [2020, комедия, WEB-DL 1080p]

0 | 0

5.29 ГБ

В этой теме нет новых непрочитанных сообщений. Фитнес (3 сезон 1-16 серии из 20) (Кирилл Васильев) [2020, комедия, WEB-DL 1080p]

0 | 0

11.99 ГБ

В этой теме нет новых непрочитанных сообщений. Фитнес (3 сезон 1-13 серии из 20) (Кирилл Васильев) [2020, комедия, WEB-DL 1080p]

1 | 1

9.79 ГБ

В этой теме нет новых непрочитанных сообщений. Фитнес (3 сезон 1-14 серии из 20) (Кирилл Васильев) [2020, комедия, WEB-DL 720p]

6 | 7

7.08 ГБ

В этой теме нет новых непрочитанных сообщений. Фитнес (3 сезон 1-13 серии из 20) (Кирилл Васильев) [2020, комедия, WEB-DLRip]

9 | 10

4.45 ГБ

В этой теме нет новых непрочитанных сообщений. Фитнес (3 сезон 1-6 серии из 20) (Кирилл Васильев) [2020, комедия, WEB-DLRip]

6 | 9

2.05 ГБ




Вы не можете начинать темы
Вы не можете отвечать на сообщения
Вы не можете редактировать свои сообщения
Вы не можете удалять свои сообщения
Вы не можете добавлять вложения

Перейти:  
 Вход
ppkBB3cker v.2 © 2008-2014 @ PPK
[ Time : 0.036s | 18 Queries | GZIP : Off ]

cron