img image001 image001 image001 image001 image001 image001 image001 image001 image001 image001 image001 image001 image001 image001 image001

Planets Sun Sun Sun

COVID-19 - Последняя информация о коронавирусе на сайте Минздрава


Статистика раздачи
Автор: Снежана | Размер: 1.25 ГБ | Добавлен: 13 фев 2020
Раздают: 0    Качают: 0
Скачать торрент
Скачать торрент
Описание торрента

СообщениеДобавлено: 13 фев 2020 

Триггер / Провокатор (2- серии из 16)

Перевод: Не требуется, cубтитры: отсутствуют
Формат: WEB-DLRip-AVC, MKV, H.264, AC3
Страна: Россия
Режиссер: Дмитрий Тюрин
Жанр: драма
Всего серий: 16
Продолжительность: 2 x ~ 00:50:00
Год выпуска: 2018

В ролях: Максим Матвеев, Игорь Костолевский, Светлана Иванова, Марк Юсеф, Виктория Маслова, Роман Маякин, Владислав Тирон, Ангелина Стречина, Данила Дунаев, Марианна Шульц, Евгения Вайс, Евгений Токарев, Мария Ахметзянова, Сергей Мухин, Галина Фёдорова (IV), Константин Тополага, Андрей Бестужев, Михаил Кленов, Дмитрий Ярцев, Александр Обласов, Марина Кангелари, Леонид Бичевин, Даниил Воробьёв, Олег Блинов, Хельга Филиппова, Владислав Калашников, Данила Якушев, Владимир Иваний, Кристтина Степунина, Илья Соболев, Степан Середа, Виталий Щербина, Ольга Пронина, Максим Мальцев, Екатерина Копанова, Диана Енакаева, Яна Есипович, Евгения Шипова, Михаил Станкевич, Евгений Данчевский, Елена Синякова, Сергей Гурьев, Елена Глебова, Виктория Борисова, Виталий Матвеев (II), Александра Ремизова (II), Сергей Насибян, Алексей Ошурков, Илья Семёнов, Анна Галлямова, Вадим Дмитриев, Ольга Калашникова, Дмитрий Готсдинер, Андрей Попович, Сергей Карасевич, Мария Клюквина, Константин Новиков, Анастасия Попкова, Елена Старостина (II), Лилия Разакова, Дарья Буткеева, Максим Евсеев, Андрей Касницкий, Алексей Матошин, Виталина Гусак, Екатерина Соломатина, Марина Гусинская, Марина Ерисова, Сергей Мрачковских, Денис Казандайкин

Описание: Артем Стрелецкий – психолог, профессиональный провокатор, практикующий «шоковый» метод психотерапии. Большинство психологов «нянчатся» с клиентами, по полгода выслушивают жалобы на жизнь, сочувствуют – и получают кругленькие суммы за курс сеансов. Артем провоцирует клиентов, оскорбляет их, смеется над ними, специально подстраивает неловкие ситуации и намеренно выталкивает из зоны психологического комфорта. Провокации активируют в психике человека желание немедленно разобраться со своими проблемами, и решение находится очень быстро – буквально за один-два сеанса. Практика Артема процветает, пока один из клиентов Стрелецкого не накладывает на себя руки. Выйдя на свободу после четырехлетнего заключения по делу о доведении до самоубийства, Артем твёрдо намеревается всё исправить – доказать свою невиновность и вернуть любимую жену Дашу...

Рейтинг и доп. информация:


Видео: 1024x576, (16:9), 25 fps, AVC MPEG-4 (x264), ~ 1600 kbps , 0.109 bit/pixel
Аудио: 48 kHz, АС3, 2/0 (L,R), ~192.00 kbps avg
Внимание! Раздача ведётся путём добавления новых серий. При каждом добавлении создаётся новый торрент.
Чтобы начать докачку новой серии, пользователям необходимо сделать следующее:
1. Остановить скачивание.
2. Удалить старый торрент у себя из клиента (старые серии удалять не надо).
3. Скачать новый торрент и запустить его у себя в клиенте вместо старого, при этом указать клиенту путь в старую папку куда и должно происходить скачивание новых серий. Ваш клиент при этом должен произвести хеширование (проверку) старой папки и будет докачивать только те серии, которых у вас ещё нет. Старые серии при этом не удаляются, а продолжают раздаваться! Eсли вы уже удалили старые серии, то предотвратить повторную закачку старых серий можно, отжав галочку в соответствующих местах при запуске нового торрента.


Общее
Уникальный идентификатор : 195182428816443411480136700406418011031 (0x92D6C4B7AB8561ADA10A3D19FE927397)
Полное имя : C:\Триггер.(2018).WEB-DLRip.(AVC).Files-x\01.Trigger.(2018).WEB-DLRip.(AVC).by.Серый1779.Files-x.mkv
Формат : Matroska
Версия формата : Version 2
Размер файла : 652 Мбайт
Продолжительность : 50 м. 50 с.
Общий поток : 1793 Кбит/сек
Дата кодирования : UTC 2020-02-07 19:40:47
Программа кодирования : mkvmerge v7.8.0 (''River Man'') 32bit built on Apr 3 2015 12:11:22
Библиотека кодирования : libebml v1.3.1 + libmatroska v1.4.2

Видео
Идентификатор : 1
Формат : AVC
Формат/Информация : Advanced Video Codec
Профиль формата :
Настройки формата : CABAC / 9 Ref Frames
Параметр CABAC формата : Да
Параметр RefFrames формата : 9 кадров
Идентификатор кодека : V_MPEG4/ISO/AVC
Продолжительность : 50 м. 50 с.
Битрейт : 1600 Кбит/сек
Ширина : 1024 пикселя
Высота : 576 пикселей
Соотношение сторон : 16:9
Режим частоты кадров : Постоянный
Частота кадров : 25,000 кадров/сек
Цветовое пространство : YUV
Субдискретизация насыщенности : 4:2:0
Битовая глубина : 8 бит
Тип развёртки : Прогрессивная
Бит/(Пиксели*Кадры) : 0.109
Размер потока : 569 Мбайт (87%)
Библиотека кодирования : x264 core 146 r2538 121396c
Настройки программы : cabac=1 / ref=9 / deblock=1:-2:-1 / analyse=0x3:0x133 / me=umh / subme=9 / psy=1 / psy_rd=1.00:0.15 / mixed_ref=1 / me_range=32 / chroma_me=1 / trellis=2 / 8x8dct=1 / cqm=0 / deadzone=21,11 / fast_pskip=0 / chroma_qp_offset=-3 / threads=18 / lookahead_threads=3 / sliced_threads=0 / nr=0 / decimate=1 / interlaced=0 / bluray_compat=0 / constrained_intra=0 / bframes=9 / b_pyramid=2 / b_adapt=2 / b_bias=0 / direct=1 / weightb=1 / open_gop=0 / weightp=2 / keyint=250 / keyint_min=25 / scenecut=40 / intra_refresh=0 / rc=2pass / mbtree=0 / bitrate=1600 / ratetol=1.0 / qcomp=0.60 / qpmin=0 / qpmax=69 / qpstep=4 / cplxblur=20.0 / qblur=0.5 / ip_ratio=1.40 / pb_ratio=1.30 / aq=2:1.00
Default : Да
Forced : Нет
Цветовой диапазон : Limited
Основные цвета : BT.709
Характеристики трансфера : BT.709
Коэффициенты матрицы : BT.709

Аудио
Идентификатор : 2
Формат : AC-3
Формат/Информация : Audio Coding 3
Коммерческое название : Dolby Digital
Идентификатор кодека : A_AC3
Продолжительность : 50 м. 50 с.
Вид битрейта : Постоянный
Битрейт : 192 Кбит/сек
Каналы : 2 канала
ChannelLayout : L R
Частота : 48,0 КГц
Частота кадров : 31,250 кадров/сек (1536 SPF)
Метод сжатия : С потерями
Размер потока : 69,8 Мбайт (11%)
ServiceKind/String : Complete Main
Default : Да
Forced : Нет






   Похожие торренты   Торрент   Размер 
В этой теме нет новых непрочитанных сообщений. Триггер / Провокатор (1-9 серии из 16) (Дмитрий Тюрин) [2018, драма, WEB-DLRip-AVC]

0 | 0

5.54 ГБ

В этой теме нет новых непрочитанных сообщений. Триггер / Провокатор (1-5 серии из 16) (Дмитрий Тюрин) [2018, драма, WEB-DLRip-AVC]

0 | 0

3.12 ГБ

В этой теме нет новых непрочитанных сообщений. Триггер / Провокатор (1-13 серии из 16) (Дмитрий Тюрин) [2018, драма, WEB-DLRip-AVC]

0 | 1

8 ГБ

В этой теме нет новых непрочитанных сообщений. Триггер / Провокатор (1-10 серии из 16) (Дмитрий Тюрин) [2018, драма, WEB-DLRip-AVC]

0 | 0

6.17 ГБ

В этой теме нет новых непрочитанных сообщений. Триггер / Провокатор (1-4 серии из 16) (Дмитрий Тюрин) [2018, драма, WEB-DLRip-AVC]

6 | 1

2.5 ГБ

В этой теме нет новых непрочитанных сообщений. Триггер / Провокатор (1-3 серии из 16) (Дмитрий Тюрин) [2018, драма, WEB-DLRip-AVC]

0 | 1

1.87 ГБ

В этой теме нет новых непрочитанных сообщений. Триггер / Провокатор (1-3 серии из 16) (Дмитрий Тюрин) [2018, драма, WEB-DLRip]

0 | 0

1.88 ГБ




Вы не можете начинать темы
Вы не можете отвечать на сообщения
Вы не можете редактировать свои сообщения
Вы не можете удалять свои сообщения
Вы не можете добавлять вложения

Перейти:  
Контактная информация: rstracker[пёсик]yandex.ru
 Вход
ppkBB3cker v.2 © 2008-2014 @ PPK
[ Time : 0.048s | 16 Queries | GZIP : Off ]

cron