img image001 image001 image001 image001 image001 image001 image001 image001 image001 image001 image001 image001 image001 image001 image001

Planets Sun Sun Sun

COVID-19 - Последняя информация о коронавирусе на сайте Минздрава


Статистика раздачи
Автор: Снежана | Размер: 2.56 ГБ | Добавлен: 13 фев 2020
Раздают: 119    Качают: 111
Скачать торрент
Скачать торрент
Описание торрента

СообщениеДобавлено: 13 фев 2020 

Война семей (1-5 серии из 20)

Перевод: Не требуется, cубтитры: отсутствуют
Формат: WEB-DL 720p, MKV, H.264, AC3
Страна: Россия
Режиссер: Илья Фарфель, Евгений Корчагин
Жанр: комедия, семейный
Всего серий: 20
Продолжительность: 1 х ~ 00:45:00; 3 х ~ 00:25:00
Год выпуска: 2019

В ролях: Александр Робак, Егор Бероев, Светлана Колпакова, Ольга Медынич, Арина Постникова, Арам Вардеванян, Пелагея Невзорова, Джемал Тетруашвили, Мария Букнис, Ирина Чипиженко, Юлия Томашевская, Анар Халилов, Елизавета Мазалова, Светлана Корчагина, Диана Гаюнова, Маргарита Шилова, Денис Пьянов, Павел Маркин, Александра Флоринская, Алиса Клагиш, Любовь Тищенко (II), Юрий Скулябин, Алёна Тимкова, Игорь Лазунько, Мария Букнис, Денис Барковский, Елизавета Приходская, Елена Оларь, Диана Гаюнова, Евгений Пилипенко, Клим Бердинский, Микаэлла Дель, Сергей Гурьев (II), Юнир Магдеев, Игорь Трафлялин, Наталья Жернакова

Описание: Миша и Дима – друзья с детства. Общий бизнес, соседние дома без забора, дружба семьями – идиллия, которою, как казалось, невозможно разрушить. Грядущая свадьба детей должна была укрепить многолетний союз. Однако во время семейного торжества неожиданно вскрываются тайны, которые в один миг превращают лучших друзей в заклятых врагов.

Рейтинг и доп. информация:


Видео: 1280x720, (16:9), 25 fps, AVC MPEG-4 (x264), ~ 3000 kbps , 0.126 bit/pixel
Аудио: 48 kHz, AC3, 2/0 (L,R) ch, ~192 kbps
Внимание! Раздача ведётся путём добавления новых серий. При каждом добавлении создаётся новый торрент.
Чтобы начать докачку новой серии, пользователям необходимо сделать следующее:
1. Остановить скачивание.
2. Удалить старый торрент у себя из клиента (старые серии удалять не надо).
3. Скачать новый торрент и запустить его у себя в клиенте вместо старого, при этом указать клиенту путь в старую папку куда и должно происходить скачивание новых серий. Ваш клиент при этом должен произвести хеширование (проверку) старой папки и будет докачивать только те серии, которых у вас ещё нет. Старые серии при этом не удаляются, а продолжают раздаваться! Eсли вы уже удалили старые серии, то предотвратить повторную закачку старых серий можно, отжав галочку в соответствующих местах при запуске нового торрента.


Реклама, любого вида, отсутствует.

Общее
Уникальный идентификатор : 172223078035594512321228847777576042915 (0x8190F553D362F473BB845C624872C1A3)
Полное имя : C:\Voyna.semey.2019.WEB-DL.(720p).ExKinoRay\Voyna.semey.e01-02.2019.WEB-DL.(720p).ExKinoRay.mkv
Формат : Matroska
Версия формата : Version 2
Размер файла : 1,00 Гбайт
Продолжительность : 45 м. 17 с.
Режим общего битрейта : Переменный
Общий поток : 3171 Кбит/сек
Дата кодирования : UTC 2020-02-07 13:54:14
Программа кодирования : mkvmerge v5.8.0 (''No Sleep / Pillow'') built on Sep 2 2012 15:37:04
Библиотека кодирования : libebml v1.2.3 + libmatroska v1.3.0

Видео
Идентификатор : 1
Формат : AVC
Формат/Информация : Advanced Video Codec
Профиль формата :
Настройки формата : CABAC / 1 Ref Frames
Параметр CABAC формата : Да
Параметр RefFrames формата : 1 кадр
Параметр GOP формата : M=1, N=50
Идентификатор кодека : V_MPEG4/ISO/AVC
Продолжительность : 45 м. 17 с.
Вид битрейта : Переменный
Битрейт : 2916 Кбит/сек
Максимальный битрейт : 3000 Кбит/сек
Ширина : 1280 пикселей
Высота : 720 пикселей
Соотношение сторон : 16:9
Режим частоты кадров : Постоянный
Частота кадров : 25,000 кадров/сек
Цветовое пространство : YUV
Субдискретизация насыщенности : 4:2:0
Битовая глубина : 8 бит
Тип развёртки : Прогрессивная
Бит/(Пиксели*Кадры) : 0.126
Размер потока : 945 Мбайт (92%)
Язык : Russian
Default : Да
Forced : Нет

Аудио
Идентификатор : 2
Формат : AC-3
Формат/Информация : Audio Coding 3
Коммерческое название : Dolby Digital
Идентификатор кодека : A_AC3
Продолжительность : 45 м. 17 с.
Вид битрейта : Постоянный
Битрейт : 192 Кбит/сек
Каналы : 2 канала
ChannelLayout : L R
Частота : 48,0 КГц
Частота кадров : 31,250 кадров/сек (1536 SPF)
Метод сжатия : С потерями
Размер потока : 62,2 Мбайт (6%)
Язык : Russian
ServiceKind/String : Complete Main
Default : Да
Forced : Нет






   Похожие торренты   Торрент   Размер 
В этой теме нет новых непрочитанных сообщений. Война семей (1-12 серии из 20) (Илья Фарфель, Евгений Корчагин) [2019, комедия, семейный, WEB-DL 720p]

0 | 0

6.15 ГБ

В этой теме нет новых непрочитанных сообщений. Война семей (1-8 серии из 20) (Илья Фарфель, Евгений Корчагин) [2019, комедия, семейный, WEB-DL 720p]

42 | 36

4.09 ГБ

В этой теме нет новых непрочитанных сообщений. Война семей (1-20 серии из 20) (Илья Фарфель, Евгений Корчагин) [2019, комедия, семейный, WEB-DL 720p]

196 | 71

9.96 ГБ

В этой теме нет новых непрочитанных сообщений. Война семей (1-4 серии из 20) (Илья Фарфель, Евгений Корчагин) [2019, комедия, семейный, WEB-DL 720p]

73 | 49

2.03 ГБ

В этой теме нет новых непрочитанных сообщений. Война семей (1-8 серии из 20) (Илья Фарфель, Евгений Корчагин) [2019, комедия, семейный, WEB-DLRip]

23 | 25

2.34 ГБ

В этой теме нет новых непрочитанных сообщений. Война семей (1-4 серии из 20) (Илья Фарфель, Евгений Корчагин) [2019, комедия, семейный, WEB-DLRip]

18 | 9

1.17 ГБ

В этой теме нет новых непрочитанных сообщений. Война семей (1-12 серии из 20) (Илья Фарфель, Евгений Корчагин) [2019, комедия, семейный, WEB-DLRip]

34 | 14

3.52 ГБ




Вы не можете начинать темы
Вы не можете отвечать на сообщения
Вы не можете редактировать свои сообщения
Вы не можете удалять свои сообщения
Вы не можете добавлять вложения

Перейти:  
Контактная информация: rstracker[пёсик]yandex.ru
 Вход
ppkBB3cker v.2 © 2008-2014 @ PPK
[ Time : 0.031s | 18 Queries | GZIP : Off ]

cron