img image001 image001 image001 image001 image001 image001 image001 image001 image001 image001 image001 image001 image001 image001 image001

Planets Sun Sun Sun

COVID-19 - Последняя информация о коронавирусе на сайте Минздрава


Статистика раздачи
Автор: Снежана | Размер: 1.78 ГБ | Добавлен: 13 фев 2020
Раздают: 17    Качают: 7
Скачать торрент
Скачать торрент
Описание торрента

СообщениеДобавлено: 13 фев 2020 

Война семей (1-5 серии из 20)

Перевод: Не требуется, cубтитры: отсутствуют
Формат: WEB-DLRip-AVC, MKV, H.264, AC3
Страна: Россия
Режиссер: Илья Фарфель, Евгений Корчагин
Жанр: комедия, семейный
Всего серий: 20
Продолжительность: 1 x ~ 00:45:00; 3 х ~ 00:25:00
Год выпуска: 2019

В ролях: Александр Робак, Егор Бероев, Светлана Колпакова, Ольга Медынич, Арина Постникова, Арам Вардеванян, Пелагея Невзорова, Джемал Тетруашвили, Мария Букнис, Ирина Чипиженко, Юлия Томашевская, Анар Халилов, Елизавета Мазалова, Светлана Корчагина, Диана Гаюнова, Маргарита Шилова, Денис Пьянов, Павел Маркин, Александра Флоринская, Алиса Клагиш, Любовь Тищенко (II), Юрий Скулябин, Алёна Тимкова, Игорь Лазунько, Мария Букнис, Денис Барковский, Елизавета Приходская, Елена Оларь, Диана Гаюнова, Евгений Пилипенко, Клим Бердинский, Микаэлла Дель, Сергей Гурьев (II), Юнир Магдеев, Игорь Трафлялин, Наталья Жернакова

Описание: Миша и Дима – друзья с детства. Общий бизнес, соседние дома без забора, дружба семьями – идиллия, которою, как казалось, невозможно разрушить. Грядущая свадьба детей должна была укрепить многолетний союз. Однако во время семейного торжества неожиданно вскрываются тайны, которые в один миг превращают лучших друзей в заклятых врагов.

Рейтинг и доп. информация:


Видео: 1024x576, (16:9), 25 fps, AVC MPEG-4 (x264), ~ 2000 kbps , 0.136 bit/pixel
Аудио: 48 kHz, AC3, 2/0 (L,R) ch, ~192 kbps
Внимание! Раздача ведётся путём добавления новых серий. При каждом добавлении создаётся новый торрент.
Чтобы начать докачку новой серии, пользователям необходимо сделать следующее:
1. Остановить скачивание.
2. Удалить старый торрент у себя из клиента (старые серии удалять не надо).
3. Скачать новый торрент и запустить его у себя в клиенте вместо старого, при этом указать клиенту путь в старую папку куда и должно происходить скачивание новых серий. Ваш клиент при этом должен произвести хеширование (проверку) старой папки и будет докачивать только те серии, которых у вас ещё нет. Старые серии при этом не удаляются, а продолжают раздаваться! Eсли вы уже удалили старые серии, то предотвратить повторную закачку старых серий можно, отжав галочку в соответствующих местах при запуске нового торрента.


Общее
Уникальный идентификатор : 217036761274914145028102209061487474457 (0xA347C27F72F4B7DABA9D503C5C597719)
Полное имя : C:\Voyna.semey.2019.WEB-DLRip.(AVC).ExKinoRay\Voyna.semey.E01-02.2019.WEB-DLRip.(AVC).ExKinoRay.mkv
Формат : Matroska
Версия формата : Version 2
Размер файла : 711 Мбайт
Продолжительность : 45 м. 17 с.
Общий поток : 2194 Кбит/сек
Дата кодирования : UTC 2020-02-07 16:54:49
Программа кодирования : mkvmerge v7.8.0 (''River Man'') 32bit built on Apr 3 2015 12:11:22
Библиотека кодирования : libebml v1.3.1 + libmatroska v1.4.2

Видео
Идентификатор : 1
Формат : AVC
Формат/Информация : Advanced Video Codec
Профиль формата :
Настройки формата : CABAC / 10 Ref Frames
Параметр CABAC формата : Да
Параметр RefFrames формата : 10 кадров
Идентификатор кодека : V_MPEG4/ISO/AVC
Продолжительность : 45 м. 17 с.
Битрейт : 2000 Кбит/сек
Ширина : 1024 пикселя
Высота : 576 пикселей
Соотношение сторон : 16:9
Режим частоты кадров : Постоянный
Частота кадров : 25,000 кадров/сек
Цветовое пространство : YUV
Субдискретизация насыщенности : 4:2:0
Битовая глубина : 8 бит
Тип развёртки : Прогрессивная
Бит/(Пиксели*Кадры) : 0.136
Размер потока : 634 Мбайт (89%)
Библиотека кодирования : x264 core 146 r2538 121396c
Настройки программы : cabac=1 / ref=10 / deblock=1:-3:-3 / analyse=0x3:0x113 / me=umh / subme=11 / psy=1 / psy_rd=1.00:0.20 / mixed_ref=1 / me_range=32 / chroma_me=1 / trellis=2 / 8x8dct=1 / cqm=0 / deadzone=21,11 / fast_pskip=1 / chroma_qp_offset=-3 / threads=24 / lookahead_threads=9 / sliced_threads=0 / nr=0 / decimate=0 / interlaced=0 / bluray_compat=0 / constrained_intra=0 / bframes=11 / b_pyramid=2 / b_adapt=2 / b_bias=0 / direct=3 / weightb=1 / open_gop=0 / weightp=2 / keyint=250 / keyint_min=25 / scenecut=40 / intra_refresh=0 / rc_lookahead=60 / rc=2pass / mbtree=1 / bitrate=2000 / ratetol=1.0 / qcomp=0.60 / qpmin=0 / qpmax=69 / qpstep=4 / cplxblur=20.0 / qblur=0.5 / vbv_maxrate=14000 / vbv_bufsize=14000 / nal_hrd=none / filler=0 / ip_ratio=1.40 / aq=3:1.40
Default : Да
Forced : Нет
Цветовой диапазон : Limited
Основные цвета : BT.709
Характеристики трансфера : BT.709
Коэффициенты матрицы : BT.709

Аудио
Идентификатор : 2
Формат : AC-3
Формат/Информация : Audio Coding 3
Коммерческое название : Dolby Digital
Идентификатор кодека : A_AC3
Продолжительность : 45 м. 17 с.
Вид битрейта : Постоянный
Битрейт : 192 Кбит/сек
Каналы : 2 канала
ChannelLayout : L R
Частота : 44,1 КГц
Частота кадров : 28,711 кадров/сек (1536 SPF)
Метод сжатия : С потерями
Размер потока : 62,2 Мбайт (9%)
ServiceKind/String : Complete Main
Default : Да
Forced : Нет






   Похожие торренты   Торрент   Размер 
В этой теме нет новых непрочитанных сообщений. Война семей (1-4 серии из 20) (Илья Фарфель, Евгений Корчагин) [2019, комедия, семейный, WEB-DLRip-AVC]

22 | 6

1.41 ГБ

В этой теме нет новых непрочитанных сообщений. Война семей (1-8 серии из 20) (Илья Фарфель, Евгений Корчагин) [2019, комедия, семейный, WEB-DLRip-AVC]

22 | 17

2.84 ГБ

В этой теме нет новых непрочитанных сообщений. Война семей (1-12 серии из 20) (Илья Фарфель, Евгений Корчагин) [2019, комедия, семейный, WEB-DLRip-AVC]

5 | 2

4.27 ГБ

В этой теме нет новых непрочитанных сообщений. Война семей (1-4 серии из 20) (Илья Фарфель, Евгений Корчагин) [2019, комедия, семейный, WEB-DLRip]

18 | 9

1.17 ГБ

В этой теме нет новых непрочитанных сообщений. Война семей (1-8 серии из 20) (Илья Фарфель, Евгений Корчагин) [2019, комедия, семейный, WEB-DLRip]

23 | 25

2.34 ГБ

В этой теме нет новых непрочитанных сообщений. Война семей (1-12 серии из 20) (Илья Фарфель, Евгений Корчагин) [2019, комедия, семейный, WEB-DLRip]

34 | 14

3.52 ГБ

В этой теме нет новых непрочитанных сообщений. Война семей (1-5 серии из 20) (Илья Фарфель, Евгений Корчагин) [2019, комедия, семейный, WEB-DLRip]

29 | 11

1.46 ГБ




Вы не можете начинать темы
Вы не можете отвечать на сообщения
Вы не можете редактировать свои сообщения
Вы не можете удалять свои сообщения
Вы не можете добавлять вложения

Перейти:  
Контактная информация: rstracker[пёсик]yandex.ru
 Вход
ppkBB3cker v.2 © 2008-2014 @ PPK
[ Time : 0.039s | 19 Queries | GZIP : Off ]

cron