img image001 image001 image001 image001 image001 image001 image001 image001 image001 image001 image001 image001 image001 image001 image001

Planets Sun Sun Sun
Статистика раздачи
Автор: Снежана | Размер: 11.51 ГБ | Добавлен: 13 фев 2020
Раздают: 36    Качают: 47
Скачать торрент
Скачать торрент
Описание торрента

СообщениеДобавлено: 13 фев 2020 

Ивановы-Ивановы (4 сезон 1-21 серии из 21)

Перевод: Не требуется, cубтитры: отсутствуют
Формат: WEB-DL 720p, MKV, H.264, AC3
Страна: Россия
Режиссер: Фёдор Стуков
Жанр: комедия
Всего серий: 21
Продолжительность: 21 x ~ 00:25:00
Год выпуска: 2019

В ролях: Михаил Трухин, Сергей Бурунов, Семён Трескунов, Александра Флоринская, Анна Уколова, Алексей Лукин, Юрий Ицков, Елизавета Арзамасова, Василина Юсковец, Юлия Подозёрова, Юлия Сулес, Ирина Ракшина, Александр Обласов, Грант Тохатян, Виктория Маслова, Виктория Клинкова, Алексей Розин, Валерий Панков, Артём Федотов

Описание: В новом сезоне, девиз которого «Каждый сам за себя», герои в исполнении строят не только семейные отношения, но и амбициозные карьерные планы. Так, Полина и Лида открывают собственный бутик, Лёша распахнёт двери своего зоопарка, Данила станет управляющим автосалона, заменив отца, а Антон тем временем создаёт интернет-магазин.

Рейтинг и доп. информация:


Видео: 1280x720, (16:9), 25 fps, AVC MPEG-4 (x264), ~ 2900 kbps , 0.127 bit/pixel
Аудио: 48 kHz, AC3, 2/0 (L,R) ch, ~192 kbps
Общее
Уникальный идентификатор : 186139042222485837402479726409738393261 (0x8C091355837DB78498A2DE2E32FC96AD)
Полное имя : C:\Ивановы-Ивановы .2019 WEB-DL 720p. Files-x\01 Ивановы-Ивановы .2019 WEB-DL 720p. Files-x.mkv
Формат : Matroska
Версия формата : Version 2
Размер файла : 573 Мбайт
Продолжительность : 25 м. 16 с.
Общий поток : 3172 Кбит/сек
Дата кодирования : UTC 2019-11-11 16:39:47
Программа кодирования : mkvmerge v7.8.0 (''River Man'') 32bit built on Apr 3 2015 12:11:22
Библиотека кодирования : libebml v1.3.1 + libmatroska v1.4.2

Видео
Идентификатор : 1
Формат : AVC
Формат/Информация : Advanced Video Codec
Профиль формата :
Настройки формата : CABAC / 5 Ref Frames
Параметр CABAC формата : Да
Параметр RefFrames формата : 5 кадров
Идентификатор кодека : V_MPEG4/ISO/AVC
Продолжительность : 25 м. 16 с.
Битрейт : 2917 Кбит/сек
Ширина : 1280 пикселей
Высота : 720 пикселей
Соотношение сторон : 16:9
Режим частоты кадров : Постоянный
Частота кадров : 25,000 кадров/сек
Стандарт вещания : PAL
Цветовое пространство : YUV
Субдискретизация насыщенности : 4:2:0
Битовая глубина : 8 бит
Тип развёртки : Прогрессивная
Бит/(Пиксели*Кадры) : 0.127
Размер потока : 527 Мбайт (92%)
Default : Да
Forced : Нет
Цветовой диапазон : Limited
Основные цвета : BT.709
Характеристики трансфера : BT.709
Коэффициенты матрицы : BT.709

Аудио
Идентификатор : 2
Формат : AC-3
Формат/Информация : Audio Coding 3
Коммерческое название : Dolby Digital
Идентификатор кодека : A_AC3
Продолжительность : 25 м. 16 с.
Вид битрейта : Постоянный
Битрейт : 192 Кбит/сек
Каналы : 2 канала
ChannelLayout : L R
Частота : 48,0 КГц
Частота кадров : 31,250 кадров/сек (1536 SPF)
Метод сжатия : С потерями
Размер потока : 34,7 Мбайт (6%)
ServiceKind/String : Complete Main
Default : Да
Forced : Нет









   Похожие торренты   Торрент   Размер 
В этой теме нет новых непрочитанных сообщений. Ивановы-Ивановы (4 сезон 1-9 серии из 21) (Фёдор Стуков) [2019, комедия, WEB-DL 720p]

91 | 90

5 ГБ

В этой теме нет новых непрочитанных сообщений. Ивановы-Ивановы (4 сезон 1-6 серии из 21) (Фёдор Стуков) [2019, комедия, WEB-DL 720p]

105 | 642

3.34 ГБ

В этой теме нет новых непрочитанных сообщений. Ивановы-Ивановы (4 сезон 1-11 серии из 21) (Фёдор Стуков) [2019, комедия, WEB-DL 720p]

44 | 95

6.11 ГБ

В этой теме нет новых непрочитанных сообщений. Ивановы-Ивановы (4 сезон 1-20 серии из 21) (Фёдор Стуков) [2019, комедия, WEB-DL 720p]

12 | 11

10.97 ГБ

В этой теме нет новых непрочитанных сообщений. Ивановы-Ивановы (4 сезон 1-10 серии из 21) (Фёдор Стуков) [2019, комедия, WEB-DL 720p]

33 | 55

5.55 ГБ

В этой теме нет новых непрочитанных сообщений. Ивановы-Ивановы (4 сезон 1-2 серии из 21) (Фёдор Стуков) [2019, комедия, WEB-DL 720p]

7 | 0

1.12 ГБ

В этой теме нет новых непрочитанных сообщений. Ивановы-Ивановы (4 сезон 1-5 серии из 21) (Фёдор Стуков) [2019, комедия, WEB-DL 720p]

30 | 8

2.79 ГБ




Вы не можете начинать темы
Вы не можете отвечать на сообщения
Вы не можете редактировать свои сообщения
Вы не можете удалять свои сообщения
Вы не можете добавлять вложения

Перейти:  
 Вход
ppkBB3cker v.2 © 2008-2014 @ PPK
[ Time : 0.044s | 16 Queries | GZIP : Off ]

cron