img image001 image001 image001 image001 image001 image001 image001 image001 image001 image001 image001 image001 image001 image001 image001

Planets Sun Sun Sun

COVID-19 - Последняя информация о коронавирусе на сайте Минздрава


Статистика раздачи
Автор: Снежана | Размер: 73.38 ГБ | Добавлен: 13 фев 2020
Раздают: 30    Качают: 101
Скачать торрент
Скачать торрент
Описание торрента

СообщениеДобавлено: 13 фев 2020 

Ивановы-Ивановы (1-4 сезоны 1-82 серии из 82)

Перевод: Не требуется, cубтитры: отсутствуют
Формат: WEB-DL 1080p, MKV, H.264, AC3
Страна: Россия
Режиссер: Фёдор Стуков, Антон Федотов, Андрей Элинсон
Жанр: комедия
Всего серий: 82
Продолжительность: 82 х ~ 00:25:00
Год выпуска: 2017-2019

В ролях: Семён Трескунов, Сергей Бурунов, Михаил Трухин, Александра Флоринская, Анна Уколова, Юрий Ицков, Алексей Лукин

Описание: Герои – две российские семьи Ивановых. Они не знакомы друг с другом, у них разный достаток и круг интересов. Одни – бедны и провинциальны, вторые – более чем обеспеченны и высокомерны. Они были бы счастливы прожить жизнь, ничего не зная друг о друге, но в один прекрасный день выясняется, что много лет назад наследников этих семей перепутали в роддоме, и все эти годы сын бедняков обитал в шикарном особняке, а отпрыск богатых Ивановых ютился в малогабаритной квартире. Конечно, теперь все хотят получить обратно своих кровных наследников.

Рейтинг и доп. информация:


Видео: 1920х1080, (16:9), 25 fps, AVC MPEG-4 (x264), High@L4 ~ 5100 kbps , 0.099 bit/pixel
Аудио: 48 kHz, AC3, 2/0 (L,R) ch, ~192 kbps
Общее
Уникальный идентификатор : 192159696877155946724873205313728922197 (0x90909C86CEE1F9A6A91A297C91DBC255)
Полное имя : C:\Ivanovy.Ivanovy.2017-2019.WEB-DL.(1080p).ExKinoRay\Ivanovy.Ivanovy.S.01.2017.WEB-DL.(1080p).Nikolspup\Ivanovy.Ivanovy.S.01.(01.seriya).2017.WEB-DL.(1080p).Nikolspup.mkv
Формат : Matroska
Версия формата : Version 4
Размер файла : 927 Мбайт
Продолжительность : 24 м. 25 с.
Общий поток : 5307 Кбит/сек
Дата кодирования : UTC 2019-01-13 13:02:31
Программа кодирования : mkvmerge v7.8.0 (''River Man'') 32bit built on Mar 27 2015 16:18:02
Библиотека кодирования : libebml v1.3.1 + libmatroska v1.4.2

Видео
Идентификатор : 1
Формат : AVC
Формат/Информация : Advanced Video Codec
Профиль формата : High@L4
Настройки формата : CABAC / 4 Ref Frames
Параметр CABAC формата : Да
Параметр RefFrames формата : 4 кадра
Идентификатор кодека : V_MPEG4/ISO/AVC
Продолжительность : 24 м. 25 с.
Битрейт : 5100 Кбит/сек
Ширина : 1920 пикселей
Высота : 1080 пикселей
Соотношение сторон : 16:9
Режим частоты кадров : Постоянный
Частота кадров : 25,000 кадров/сек
Цветовое пространство : YUV
Субдискретизация насыщенности : 4:2:0
Битовая глубина : 8 бит
Тип развёртки : Прогрессивная
Бит/(Пиксели*Кадры) : 0.099
Размер потока : 893 Мбайт (96%)
Default : Да
Forced : Нет

Аудио
Идентификатор : 2
Формат : AC-3
Формат/Информация : Audio Coding 3
Коммерческое название : Dolby Digital
Идентификатор кодека : A_AC3
Продолжительность : 24 м. 25 с.
Вид битрейта : Постоянный
Битрейт : 192 Кбит/сек
Каналы : 2 канала
ChannelLayout : L R
Частота : 48,0 КГц
Частота кадров : 31,250 кадров/сек (1536 SPF)
Метод сжатия : С потерями
Размер потока : 33,5 Мбайт (4%)
Язык : Russian
ServiceKind/String : Complete Main
Default : Да
Forced : Нет






   Похожие торренты   Торрент   Размер 
В этой теме нет новых непрочитанных сообщений. Ивановы-Ивановы (1-4 сезоны 1-72 серии из 82) (Фёдор Стуков, Антон Федотов, Андрей Элинсон) [2017-2019, комедия, WEB-DL 1080p]

2 | 14

64.64 ГБ

В этой теме нет новых непрочитанных сообщений. Ивановы-Ивановы (1-4 сезоны 1-67 серии из 82) (Фёдор Стуков, Антон Федотов, Андрей Элинсон) [2017-2019, комедия, WEB-DL 1080p]

1 | 4

60.14 ГБ

В этой теме нет новых непрочитанных сообщений. Ивановы-Ивановы (1-4 сезоны 1-64 серии из 82) (Фёдор Стуков, Антон Федотов, Андрей Элинсон) [2017-2019, комедия, WEB-DL 1080p]

0 | 0

57.45 ГБ

В этой теме нет новых непрочитанных сообщений. Ивановы-Ивановы (1-4 сезоны 1-68 серии из 82) (Фёдор Стуков, Антон Федотов, Андрей Элинсон) [2017-2019, комедия, WEB-DL 1080p]

1 | 9

61.03 ГБ

В этой теме нет новых непрочитанных сообщений. Ивановы-Ивановы (1-4 сезоны 1-65 серии из 82) (Фёдор Стуков, Антон Федотов, Андрей Элинсон) [2017-2019, комедия, WEB-DL 1080p]

0 | 6

58.33 ГБ

В этой теме нет новых непрочитанных сообщений. Ивановы-Ивановы (1-4 сезоны 1-69 серии из 82) (Фёдор Стуков, Антон Федотов, Андрей Элинсон) [2017-2019, комедия, WEB-DL 1080p]

2 | 13

61.94 ГБ

В этой теме нет новых непрочитанных сообщений. Ивановы-Ивановы (1-4 сезоны 1-71 серии из 82) (Фёдор Стуков, Антон Федотов, Андрей Элинсон) [2017-2019, комедия, WEB-DL 1080p]

0 | 1

63.74 ГБ




Вы не можете начинать темы
Вы не можете отвечать на сообщения
Вы не можете редактировать свои сообщения
Вы не можете удалять свои сообщения
Вы не можете добавлять вложения

Перейти:  
Контактная информация: rstracker[пёсик]yandex.ru
 Вход
ppkBB3cker v.2 © 2008-2014 @ PPK
[ Time : 0.041s | 17 Queries | GZIP : Off ]

cron