img image001 image001 image001 image001 image001 image001 image001 image001 image001 image001 image001 image001 image001 image001 image001

Planets Sun Sun Sun
Статистика раздачи
Автор: Снежана | Размер: 6.48 ГБ | Добавлен: 13 фев 2020
Раздают: 13    Качают: 9
Скачать торрент
Скачать торрент
Описание торрента

СообщениеДобавлено: 13 фев 2020 

Ивановы-Ивановы (4 сезон 1-21 серии из 21)

Перевод: Не требуется, cубтитры: отсутствуют
Формат: WEB-DLRip-AVC, MKV, H.264, AC3
Страна: Россия
Режиссер: Фёдор Стуков
Жанр: комедия
Всего серий: 21
Продолжительность: 21 x ~ 00:25:00
Год выпуска: 2019

В ролях: Михаил Трухин, Сергей Бурунов, Семён Трескунов, Александра Флоринская, Анна Уколова, Алексей Лукин, Юрий Ицков, Елизавета Арзамасова, Василина Юсковец, Юлия Подозёрова, Юлия Сулес, Ирина Ракшина, Александр Обласов, Грант Тохатян, Виктория Маслова, Виктория Клинкова, Алексей Розин, Валерий Панков, Артём Федотов

Описание: В новом сезоне, девиз которого «Каждый сам за себя», герои в исполнении строят не только семейные отношения, но и амбициозные карьерные планы. Так, Полина и Лида открывают собственный бутик, Лёша распахнёт двери своего зоопарка, Данила станет управляющим автосалона, заменив отца, а Антон тем временем создаёт интернет-магазин.

Рейтинг и доп. информация:


Видео: 1024x576, (16:9), 25 fps, AVC MPEG-4 (x264), ~ 1600 kbps , 0.109 bit/pixel
Аудио: 48 kHz, AC3, 2/0 (L,R) ch, ~192 kbps
Общее
Уникальный идентификатор : 184048208533273286635519605616183104102 (0x8A76654634B05F57B12B9128B4B05266)
Полное имя : C:\Ивановы-Ивановы.S04.(2019).WEB-DLRip.(AVC).Files-x\01.Ивановы-Ивановы.S04.(2019).WEB-DLRip.(AVC).by.Серый1779.Files-x.mkv
Формат : Matroska
Версия формата : Version 2
Размер файла : 324 Мбайт
Продолжительность : 25 м. 16 с.
Общий поток : 1793 Кбит/сек
Дата кодирования : UTC 2019-11-11 17:25:39
Программа кодирования : mkvmerge v7.8.0 (''River Man'') 32bit built on Apr 3 2015 12:11:22
Библиотека кодирования : libebml v1.3.1 + libmatroska v1.4.2

Видео
Идентификатор : 1
Формат : AVC
Формат/Информация : Advanced Video Codec
Профиль формата :
Настройки формата : CABAC / 9 Ref Frames
Параметр CABAC формата : Да
Параметр RefFrames формата : 9 кадров
Идентификатор кодека : V_MPEG4/ISO/AVC
Продолжительность : 25 м. 16 с.
Битрейт : 1600 Кбит/сек
Ширина : 1024 пикселя
Высота : 576 пикселей
Соотношение сторон : 16:9
Режим частоты кадров : Постоянный
Частота кадров : 25,000 кадров/сек
Цветовое пространство : YUV
Субдискретизация насыщенности : 4:2:0
Битовая глубина : 8 бит
Тип развёртки : Прогрессивная
Бит/(Пиксели*Кадры) : 0.109
Размер потока : 283 Мбайт (87%)
Библиотека кодирования : x264 core 146 r2538 121396c
Настройки программы : cabac=1 / ref=9 / deblock=1:-2:-1 / analyse=0x3:0x133 / me=umh / subme=9 / psy=1 / psy_rd=1.00:0.15 / mixed_ref=1 / me_range=32 / chroma_me=1 / trellis=2 / 8x8dct=1 / cqm=0 / deadzone=21,11 / fast_pskip=0 / chroma_qp_offset=-3 / threads=18 / lookahead_threads=3 / sliced_threads=0 / nr=0 / decimate=1 / interlaced=0 / bluray_compat=0 / constrained_intra=0 / bframes=9 / b_pyramid=2 / b_adapt=2 / b_bias=0 / direct=1 / weightb=1 / open_gop=0 / weightp=2 / keyint=250 / keyint_min=25 / scenecut=40 / intra_refresh=0 / rc=2pass / mbtree=0 / bitrate=1600 / ratetol=1.0 / qcomp=0.60 / qpmin=0 / qpmax=69 / qpstep=4 / cplxblur=20.0 / qblur=0.5 / ip_ratio=1.40 / pb_ratio=1.30 / aq=2:1.00
Default : Да
Forced : Нет
Цветовой диапазон : Limited
Основные цвета : BT.709
Характеристики трансфера : BT.709
Коэффициенты матрицы : BT.709

Аудио
Идентификатор : 2
Формат : AC-3
Формат/Информация : Audio Coding 3
Коммерческое название : Dolby Digital
Идентификатор кодека : A_AC3
Продолжительность : 25 м. 16 с.
Вид битрейта : Постоянный
Битрейт : 192 Кбит/сек
Каналы : 2 канала
ChannelLayout : L R
Частота : 48,0 КГц
Частота кадров : 31,250 кадров/сек (1536 SPF)
Метод сжатия : С потерями
Размер потока : 34,7 Мбайт (11%)
ServiceKind/String : Complete Main
Default : Да
Forced : Нет








   Похожие торренты   Торрент   Размер 
В этой теме нет новых непрочитанных сообщений. Ивановы-Ивановы (4 сезон 1-11 серии из 21) (Фёдор Стуков) [2019, комедия, WEB-DLRip-AVC]

0 | 0

3.45 ГБ

В этой теме нет новых непрочитанных сообщений. Ивановы-Ивановы (4 сезон 1-20 серии из 21) (Фёдор Стуков) [2019, комедия, WEB-DLRip-AVC]

0 | 0

6.18 ГБ

В этой теме нет новых непрочитанных сообщений. Ивановы-Ивановы (4 сезон 1-7 серии из 21) (Фёдор Стуков) [2019, комедия, WEB-DLRip-AVC]

0 | 0

2.2 ГБ

В этой теме нет новых непрочитанных сообщений. Ивановы-Ивановы (4 сезон 1-3 серии из 21) (Фёдор Стуков) [2019, комедия, WEB-DLRip-AVC]

25 | 15

977.51 МБ

В этой теме нет новых непрочитанных сообщений. Ивановы-Ивановы (4 сезон 1-8 серии из 21) (Фёдор Стуков) [2019, комедия, WEB-DLRip-AVC]

25 | 38

2.51 ГБ

В этой теме нет новых непрочитанных сообщений. Ивановы-Ивановы (4 сезон 1-12 серии из 21) (Фёдор Стуков) [2019, комедия, WEB-DLRip-AVC]

0 | 1

3.77 ГБ

В этой теме нет новых непрочитанных сообщений. Ивановы-Ивановы (4 сезон 1-10 серии из 21) (Фёдор Стуков) [2019, комедия, WEB-DLRip-AVC]

2 | 1

3.14 ГБ




Вы не можете начинать темы
Вы не можете отвечать на сообщения
Вы не можете редактировать свои сообщения
Вы не можете удалять свои сообщения
Вы не можете добавлять вложения

Перейти:  
 Вход
ppkBB3cker v.2 © 2008-2014 @ PPK
[ Time : 0.040s | 18 Queries | GZIP : Off ]

cron