img image001 image001 image001 image001 image001 image001 image001 image001 image001 image001 image001 image001 image001 image001 image001

Planets Sun Sun Sun
Статистика раздачи
Автор: Снежана | Размер: 3.77 ГБ | Добавлен: 13 фев 2020
Раздают: 29    Качают: 16
Скачать торрент
Скачать торрент
Описание торрента

СообщениеДобавлено: 13 фев 2020 

Война семей (1-5 серии из 20)

Формат: WEB-DL, MKV, AVC, AC3
Режиссер: Илья Фарфель, Евгений Корчагин
Жанр: комедия
Продолжительность: 5 х ~ 00:45:00
Год выпуска: 2019
В ролях: Егор Бероев, Александр Робак, Ольга Медынич, Светлана Колпакова, Арина Постникова, Арам Вардеванян, Пелагея Невзорова, Александра Флоринская, Алиса Клагиш, Джемал Тетруашвили, Любовь Тищенко (II), Юлия Томашевская, Юрий Скулябин, Елизавета Мазалова
Описание:
Миша и Дима – друзья с детства. Общий бизнес, соседние дома без забора, дружба семьями – идиллия, которою, как казалось, невозможно разрушить. Грядущая свадьба детей должна была укрепить многолетний союз. Однако во время семейного торжества неожиданно вскрываются тайны, которые в один миг превращают лучших друзей в заклятых врагов.



Видео: 1920x1080 (16:9), 25.000 fps, AVC ~4500 kbps avg, 0.096 bit/pixel
Аудио: 48 kHz, AC3, 2/0 (L,R) ch, ~192.00 kbps avg

Без рекламы

Внимание! Раздача ведётся путём добавления новых серий. При каждом добавлении создаётся новый торрент.
Чтобы начать докачку новой серии, пользователям необходимо сделать следующее:
1. Остановить скачивание.
2. Удалить старый торрент у себя из клиента (старые серии удалять не надо).
3. Скачать новый торрент и запустить его у себя в клиенте вместо старого, при этом указать клиенту путь в старую папку куда и должно происходить скачивание новых серий. Ваш клиент при этом должен произвести хеширование (проверку) старой папки и будет докачивать только те серии, которых у вас ещё нет. Старые серии при этом не удаляются, а продолжают раздаваться! Eсли вы уже удалили старые серии, то предотвратить повторную закачку старых серий можно, отжав галочку в соответствующих местах при запуске нового торрента.

Общее
Уникальный идентификатор : 171996937228844200243283806047382449324 (0x816567B98FB7FEF2AF0F8DE02C42ACAC)
Полное имя : F:\СЕРИАЛЫ\ВОЙНА СЕМЕЙ\Voyna.semey.S01.2019.WEB-DL.(1080p).Getty\Voyna.semey.s01e01-02.2019.WEB-DL.(1080p).Getty.mkv
Формат : Matroska
Версия формата : Version 4
Размер файла : 1,63 Гбайт
Продолжительность : 45 м. 16 с.
Режим общего битрейта : Постоянный
Общий поток : 5167 Кбит/сек
Название фильма : Voyna.semey.e01-02.2019.WEB-DL.(1080p).Getty
Дата кодирования : UTC 2020-02-02 00:48:40
Программа кодирования : mkvmerge v7.8.0 (''River Man'') 32bit built on Mar 27 2015 16:18:02
Библиотека кодирования : libebml v1.3.1 + libmatroska v1.4.2

Видео
Идентификатор : 1
Формат : AVC
Формат/Информация : Advanced Video Codec
Профиль формата : Baseline@L4
Настройки формата : 4 Ref Frames
Параметр CABAC формата : Нет
Параметр RefFrames формата : 4 кадра
Идентификатор кодека : V_MPEG4/ISO/AVC
Продолжительность : 45 м. 16 с.
Вид битрейта : Постоянный
Битрейт : 4500 Кбит/сек
Ширина : 1920 пикселей
Высота : 1080 пикселей
Соотношение сторон : 16:9
Режим частоты кадров : Постоянный
Частота кадров : 25,000 кадров/сек
Стандарт вещания : PAL
Цветовое пространство : YUV
Субдискретизация насыщенности : 4:2:0
Битовая глубина : 8 бит
Тип развёртки : Прогрессивная
Бит/(Пиксели*Кадры) : 0.096
Размер потока : 1,57 Гбайт (96%)
Default : Да
Forced : Нет
Цветовой диапазон : Limited
Основные цвета : BT.709
Характеристики трансфера : BT.709
Коэффициенты матрицы : BT.709

Аудио
Идентификатор : 2
Формат : AC-3
Формат/Информация : Audio Coding 3
Коммерческое название : Dolby Digital
Идентификатор кодека : A_AC3
Продолжительность : 45 м. 16 с.
Вид битрейта : Постоянный
Битрейт : 192 Кбит/сек
Каналы : 2 канала
ChannelLayout : L R
Частота : 48,0 КГц
Частота кадров : 31,250 кадров/сек (1536 SPF)
Битовая глубина : 16 бит
Метод сжатия : С потерями
Размер потока : 62,2 Мбайт (4%)
ServiceKind/String : Complete Main
Default : Да
Forced : Нет






   Похожие торренты   Торрент   Размер 
В этой теме нет новых непрочитанных сообщений. Война семей (1-4 серии из 20) (Илья Фарфель, Евгений Корчагин) [2019, комедия, WEB-DL 1080p]

27 | 27

2.99 ГБ

В этой теме нет новых непрочитанных сообщений. Война семей (1-4 серии из 20) (Илья Фарфель, Евгений Корчагин) [2019, комедия, семейный, WEB-DLRip]

0 | 0

1.17 ГБ

В этой теме нет новых непрочитанных сообщений. Война семей (1-4 серии из 20) (Илья Фарфель, Евгений Корчагин) [2019, комедия, семейный, WEB-DL 720p]

73 | 49

2.03 ГБ

В этой теме нет новых непрочитанных сообщений. Война семей (1-5 серии из 20) (Илья Фарфель, Евгений Корчагин) [2019, комедия, семейный, WEB-DL 720p]

119 | 111

2.56 ГБ

В этой теме нет новых непрочитанных сообщений. Война семей (1-5 серии из 20) (Илья Фарфель, Евгений Корчагин) [2019, комедия, семейный, WEB-DLRip]

57 | 20

1.46 ГБ

В этой теме нет новых непрочитанных сообщений. Война семей (1-5 серии из 20) (Илья Фарфель, Евгений Корчагин) [2019, комедия, семейный, WEB-DLRip-AVC]

26 | 9

1.78 ГБ

В этой теме нет новых непрочитанных сообщений. Война семей (1-4 серии из 20) (Илья Фарфель, Евгений Корчагин) [2019, комедия, семейный, WEB-DLRip-AVC]

35 | 13

1.41 ГБ




Вы не можете начинать темы
Вы не можете отвечать на сообщения
Вы не можете редактировать свои сообщения
Вы не можете удалять свои сообщения
Вы не можете добавлять вложения

Перейти:  
 Вход
ppkBB3cker v.2 © 2008-2014 @ PPK
[ Time : 0.021s | 18 Queries | GZIP : Off ]

cron