img image001 image001 image001 image001 image001 image001 image001 image001 image001 image001 image001 image001 image001 image001 image001

Planets Sun Sun Sun
Статистика раздачи
Автор: Снежана | Размер: 7.53 ГБ | Добавлен: 27 фев 2020
Раздают: 12    Качают: 19

Скачать торрент
Скачать торрент
Описание торрента

СообщениеДобавлено: 27 фев 2020 

Фитнес (3 сезон 1-15 серии из 20)

Перевод: Не требуется, cубтитры: отсутствуют
Формат: WEB-DL 720p, MKV, H.264, AC3
Страна: Россия
Режиссер: Кирилл Васильев
Жанр: комедия
Всего серий: 20
Продолжительность: 15 х ~ 00:25:00
Год выпуска: 2020

В ролях: Софья Зайка, Борис Дергачев, Михаил Трухин, Роман Курцын, Татьяна Храмова (II), Евгений Михеев, Дмитрий Чеботарёв, Марианна Шульц, Алексей Демидов, Лёля Баранова, Илья Глинников, Светлана Камынина, Светлана Токарская, Кристина Юдичева, Пётр Королёв, Андрей Трушин, Елизавета Мартинес Карденас, Стефан Бузылёв, Алексей Карпов, Олег Евтеев, Сергей Рубашкин, Екатерина Щербакова, Кристина Кучеренко, Эвелина Блёданс, Евдокия Лаврухина, Евгения Ярушникова, Максим Деричев

Описание: Новая владелица «СуперФита» Бэлла Ринатовна берет управление клубом под жесткий контроль. Бескомпромиссная хозяйка похоронного бюро намерена извлечь из нового бизнеса максимум пользы. Поэтому в клубе стремительно меняются правила, а в зале внезапно появляется боксерский ринг. Именно на нем Асе Королевой предстоит побороться с Бэллой за судьбу клуба, а, возможно, и за свое будущее. И, похоже, у девушки почти нет шансов победить опытного спарринг-партнера. К счастью, в клубе появляется тренер по боксу, который готов подготовить Асю. Но вспыльчивый характер и поведение раздолбая очень быстро ставят работу тренера под угрозу.

Рейтинг и доп. информация:


Видео: 1280х720, (16:9), 25 fps, AVC MPEG-4 (x264), ~ 3000 kbps , 0.126 bit/pixel
Аудио: 48 kHz, AC3, 2/0 (L,R) ch, ~192 kbps
Внимание! Раздача ведётся путём добавления новых серий. При каждом добавлении создаётся новый торрент.
Чтобы начать докачку новой серии, пользователям необходимо сделать следующее:
1. Остановить скачивание.
2. Удалить старый торрент у себя из клиента (старые серии удалять не надо).
3. Скачать новый торрент и запустить его у себя в клиенте вместо старого, при этом указать клиенту путь в старую папку куда и должно происходить скачивание новых серий. Ваш клиент при этом должен произвести хеширование (проверку) старой папки и будет докачивать только те серии, которых у вас ещё нет. Старые серии при этом не удаляются, а продолжают раздаваться! Eсли вы уже удалили старые серии, то предотвратить повторную закачку старых серий можно, отжав галочку в соответствующих местах при запуске нового торрента.


Реклама, любого вида, отсутствует.

Общее
Уникальный идентификатор : 198691300099235858786091452708846418410 (0x957A8D6DB1735DB9A70A8B16A8D1B9EA)
Полное имя : C:\Fitnes.S03.2020.WEB-DL.720p.ExKinoRay\Fitnes.S03.E01.2020.WEB-DL.720p.ExKinoRay.mkv
Формат : Matroska
Версия формата : Version 2
Размер файла : 541 Мбайт
Продолжительность : 23 м. 56 с.
Режим общего битрейта : Переменный
Общий поток : 3159 Кбит/сек
Дата кодирования : UTC 2020-02-07 13:30:36
Программа кодирования : mkvmerge v5.8.0 (''No Sleep / Pillow'') built on Sep 2 2012 15:37:04
Библиотека кодирования : libebml v1.2.3 + libmatroska v1.3.0

Видео
Идентификатор : 1
Формат : AVC
Формат/Информация : Advanced Video Codec
Профиль формата :
Настройки формата : CABAC / 1 Ref Frames
Параметр CABAC формата : Да
Параметр RefFrames формата : 1 кадр
Параметр GOP формата : M=1, N=50
Идентификатор кодека : V_MPEG4/ISO/AVC
Продолжительность : 23 м. 56 с.
Вид битрейта : Переменный
Битрейт : 2904 Кбит/сек
Максимальный битрейт : 3000 Кбит/сек
Ширина : 1280 пикселей
Высота : 720 пикселей
Соотношение сторон : 16:9
Режим частоты кадров : Постоянный
Частота кадров : 25,000 кадров/сек
Цветовое пространство : YUV
Субдискретизация насыщенности : 4:2:0
Битовая глубина : 8 бит
Тип развёртки : Прогрессивная
Бит/(Пиксели*Кадры) : 0.126
Размер потока : 497 Мбайт (92%)
Язык : Russian
Default : Да
Forced : Нет

Аудио
Идентификатор : 2
Формат : AC-3
Формат/Информация : Audio Coding 3
Коммерческое название : Dolby Digital
Идентификатор кодека : A_AC3
Продолжительность : 23 м. 56 с.
Вид битрейта : Постоянный
Битрейт : 192 Кбит/сек
Каналы : 2 канала
ChannelLayout : L R
Частота : 48,0 КГц
Частота кадров : 31,250 кадров/сек (1536 SPF)
Метод сжатия : С потерями
Размер потока : 32,9 Мбайт (6%)
Язык : Russian
ServiceKind/String : Complete Main
Default : Да
Forced : Нет






   Похожие торренты   Торрент   Размер 
В этой теме нет новых непрочитанных сообщений. Фитнес (3 сезон 1-6 серии из 20) (Кирилл Васильев) [2020, комедия, WEB-DL 720p]

0 | 0

3.08 ГБ

В этой теме нет новых непрочитанных сообщений. Фитнес (3 сезон 1-19 серии из 20) (Кирилл Васильев) [2020, комедия, WEB-DL 720p]

6 | 3

9.52 ГБ

В этой теме нет новых непрочитанных сообщений. Фитнес (3 сезон 1-14 серии из 20) (Кирилл Васильев) [2020, комедия, WEB-DL 720p]

6 | 7

7.08 ГБ

В этой теме нет новых непрочитанных сообщений. Фитнес (3 сезон 1-7 серии из 20) (Кирилл Васильев) [2020, комедия, WEB-DL 720p]

7 | 2

3.6 ГБ

В этой теме нет новых непрочитанных сообщений. Фитнес (3 сезон 1-11 серии из 20) (Кирилл Васильев) [2020, комедия, WEB-DL 720p]

23 | 16

5.57 ГБ

В этой теме нет новых непрочитанных сообщений. Фитнес (3 сезон 1-13 серии из 20) (Кирилл Васильев) [2020, комедия, WEB-DL 1080p]

1 | 1

9.79 ГБ

В этой теме нет новых непрочитанных сообщений. Фитнес (3 сезон 1-16 серии из 20) (Кирилл Васильев) [2020, комедия, WEB-DLRip]

2 | 2

5.47 ГБ




Вы не можете начинать темы
Вы не можете отвечать на сообщения
Вы не можете редактировать свои сообщения
Вы не можете удалять свои сообщения
Вы не можете добавлять вложения

Перейти:  
 Вход
ppkBB3cker v.2 © 2008-2014 @ PPK
[ Time : 1.614s | 16 Queries | GZIP : Off ]

cron