img image001 image001 image001 image001 image001 image001 image001 image001 image001 image001 image001 image001 image001 image001 image001

Planets Sun Sun Sun

COVID-19 - Последняя информация о коронавирусе на сайте Минздрава


Статистика раздачи
Автор: Снежана | Размер: 10.19 ГБ | Добавлен: 24 мар 2020
Раздают: 2    Качают: 0
Скачать торрент
Скачать торрент
Описание торрента

СообщениеДобавлено: 24 мар 2020 

Отречение (1-18 серии из 24)

Перевод: Не требуется, cубтитры: отсутствуют
Формат: WEBRip-AVC, MKV, H.264, AC3
Страна: Украина
Режиссер: Сергей Сотниченко, Антон Гойда
Жанр: детектив, мелодрама
Всего серий: 24
Продолжительность: 18 х ~ 00:43:36
Год выпуска: 2020

В ролях: Макар Тихомиров, Наталия Бабенко, Артём Позняк, Вячеслав Бабенков (II), Константин Войтенко, Анастасия Карпенко, Зоя Барановская, Игорь Салимонов, Вита Смачелюк, Акмал Гурезов, Миша Черняков, Роман Жиров, Нина Набока, Геннадий Попенко, Сергей Кияшко, Анастасия Котляр, Юлия Врублевская, Евгений Лесничий, Сергей Филоненко, михаил Дзюба, Анна Грищенко, Роман Поляков, Юрий Щербак, Елена Оларь, Сергей Власенко, Владимир Ющенко, Евгений Бобровский, Артур Ветковский, Олег Венгер, Александр Третьяченко, Екатерина рудая, Оксана Русина, Алексей титаренко, Павел Левицкий, Виктория Ретивова, Руслан Ярошенко, Григорий Сирота, Дмитрий Булкот, Ольга Зиневич, Кристина Дейлик, Владимир Вовк, Алексей Нечай-Кучинский, Марина Мельяновская, Алёна Завгородняя, Дамир Сухов, Татьяна Гайдук, Татьяна Юрикова, Анастасия Котляр, Александра Бехтеева, Вячеслав Евтушенко, Елена Хижная, Ирина Бондаренко, Ольга Щедрова, Вадим Метряев, Юрия Яковлев, Денис Тучков, Анатолий Голубовский

Описание: Новый сотрудник специального отдела уголовного розыска Влад Романенко – молод, талантлив и принципиален. Еще в юности парень разорвал отношения со своим отцом, который был представителем криминального мира. Случилось это после того, как он не смог стать на пути отца и дать ход делу, за что до сих пор мучится угрызением совести. Новый виток этой драмы начинается, когда молодой оперативник влюбляется в свою сотрудницу – девушку Сашу. Тогда же всплывет прошлое семьи Влада, не позволяя ему больше делать вид, что у него нет отца.

Рейтинг и доп. информация:


Видео: 1024x576, (16:9), 25 fps, AVC MPEG-4 (x264), ~ 1600 kbps , 0.109 bit/pixel
Аудио: 48 kHz, АС3, 2/0 (L,R), ~192.00 kbps avg
Внимание! Раздача ведётся путём добавления новых серий. При каждом добавлении создаётся новый торрент.
Чтобы начать докачку новой серии, пользователям необходимо сделать следующее:
1. Остановить скачивание.
2. Удалить старый торрент у себя из клиента (старые серии удалять не надо).
3. Скачать новый торрент и запустить его у себя в клиенте вместо старого, при этом указать клиенту путь в старую папку куда и должно происходить скачивание новых серий. Ваш клиент при этом должен произвести хеширование (проверку) старой папки и будет докачивать только те серии, которых у вас ещё нет. Старые серии при этом не удаляются, а продолжают раздаваться! Eсли вы уже удалили старые серии, то предотвратить повторную закачку старых серий можно, отжав галочку в соответствующих местах при запуске нового торрента.


Общее
Уникальный идентификатор : 252608191320933994125601502509797362265 (0xBE0A91678BFA9722A05E5ECF2E0E4A59)
Полное имя : C:\Отречение.(2020).WEBRip.(AVC).Files-x\01.Отречение.(2020).WEBRip.(AVC).by.Серый1779.Files-x.mkv
Формат : Matroska
Версия формата : Version 2
Размер файла : 559 Мбайт
Продолжительность : 43 м. 36 с.
Общий поток : 1793 Кбит/сек
Дата кодирования : UTC 2020-03-10 21:26:19
Программа кодирования : mkvmerge v7.8.0 (''River Man'') 32bit built on Apr 3 2015 12:11:22
Библиотека кодирования : libebml v1.3.1 + libmatroska v1.4.2

Видео
Идентификатор : 1
Формат : AVC
Формат/Информация : Advanced Video Codec
Профиль формата :
Настройки формата : CABAC / 9 Ref Frames
Параметр CABAC формата : Да
Параметр RefFrames формата : 9 кадров
Идентификатор кодека : V_MPEG4/ISO/AVC
Продолжительность : 43 м. 36 с.
Битрейт : 1600 Кбит/сек
Ширина : 1024 пикселя
Высота : 576 пикселей
Соотношение сторон : 16:9
Режим частоты кадров : Постоянный
Частота кадров : 25,000 кадров/сек
Цветовое пространство : YUV
Субдискретизация насыщенности : 4:2:0
Битовая глубина : 8 бит
Тип развёртки : Прогрессивная
Бит/(Пиксели*Кадры) : 0.109
Размер потока : 488 Мбайт (87%)
Библиотека кодирования : x264 core 146 r2538 121396c
Настройки программы : cabac=1 / ref=9 / deblock=1:-2:-1 / analyse=0x3:0x133 / me=umh / subme=9 / psy=1 / psy_rd=1.00:0.15 / mixed_ref=1 / me_range=32 / chroma_me=1 / trellis=2 / 8x8dct=1 / cqm=0 / deadzone=21,11 / fast_pskip=0 / chroma_qp_offset=-3 / threads=18 / lookahead_threads=3 / sliced_threads=0 / nr=0 / decimate=1 / interlaced=0 / bluray_compat=0 / constrained_intra=0 / bframes=9 / b_pyramid=2 / b_adapt=2 / b_bias=0 / direct=1 / weightb=1 / open_gop=0 / weightp=2 / keyint=250 / keyint_min=25 / scenecut=40 / intra_refresh=0 / rc=2pass / mbtree=0 / bitrate=1600 / ratetol=1.0 / qcomp=0.60 / qpmin=0 / qpmax=69 / qpstep=4 / cplxblur=20.0 / qblur=0.5 / ip_ratio=1.40 / pb_ratio=1.30 / aq=2:1.00
Default : Да
Forced : Нет
Цветовой диапазон : Limited
Основные цвета : BT.709
Характеристики трансфера : BT.709
Коэффициенты матрицы : BT.709

Аудио
Идентификатор : 2
Формат : AC-3
Формат/Информация : Audio Coding 3
Коммерческое название : Dolby Digital
Идентификатор кодека : A_AC3
Продолжительность : 43 м. 36 с.
Вид битрейта : Постоянный
Битрейт : 192 Кбит/сек
Каналы : 2 канала
ChannelLayout : L R
Частота : 48,0 КГц
Частота кадров : 31,250 кадров/сек (1536 SPF)
Метод сжатия : С потерями
Размер потока : 59,9 Мбайт (11%)
ServiceKind/String : Complete Main
Default : Да
Forced : Нет








   Похожие торренты   Торрент   Размер 
В этой теме нет новых непрочитанных сообщений. Отречение (1-16 серии из 24) (Сергей Сотниченко, Антон Гойда) [2020, детектив, мелодрама, WEBRip-AVC]

22 | 1

9.05 ГБ

В этой теме нет новых непрочитанных сообщений. Отречение (1-20 серии из 24) (Сергей Сотниченко, Антон Гойда) [2020, детектив, мелодрама, WEBRip-AVC]

8 | 5

11.33 ГБ

В этой теме нет новых непрочитанных сообщений. Отречение (1-24 серии из 24) (Сергей Сотниченко, Антон Гойда) [2020, детектив, мелодрама, WEBRip]

54 | 5

13.52 ГБ

В этой теме нет новых непрочитанных сообщений. Отречение (1-10 серии из 24) (Сергей Сотниченко, Антон Гойда) [2020, детектив, мелодрама, WEBRip]

10 | 9

5.6 ГБ

В этой теме нет новых непрочитанных сообщений. Отречение (1-16 серии из 24) (Сергей Сотниченко, Антон Гойда) [2020, детектив, мелодрама, WEBRip 1080p]

2 | 0

26.07 ГБ

В этой теме нет новых непрочитанных сообщений. Отречение (1-20 серии из 24) (Сергей Сотниченко, Антон Гойда) [2020, детектив, мелодрама, WEBRip 1080p]

0 | 0

32.64 ГБ

В этой теме нет новых непрочитанных сообщений. Отречение (1-18 серии из 24) (Сергей Сотниченко, Антон Гойда) [2020, детектив, мелодрама, WEBRip 1080p]

0 | 0

29.34 ГБ




Вы не можете начинать темы
Вы не можете отвечать на сообщения
Вы не можете редактировать свои сообщения
Вы не можете удалять свои сообщения
Вы не можете добавлять вложения

Перейти:  
Контактная информация: rstracker[пёсик]yandex.ru
 Вход
ppkBB3cker v.2 © 2008-2014 @ PPK
[ Time : 0.037s | 17 Queries | GZIP : Off ]

cron