img image001 image001 image001 image001 image001 image001 image001 image001 image001 image001 image001 image001 image001 image001 image001

Planets Sun Sun Sun

COVID-19 - Последняя информация о коронавирусе на сайте Минздрава | СИДИТЕ ДОМА!


Статистика раздачи
Автор: Снежана | Размер: 22.22 ГБ | Добавлен: 25 мар 2020
Раздают: 30    Качают: 11

Скачать торрент
Скачать торрент
Описание торрента

СообщениеДобавлено: 25 мар 2020 

Невеста комдива (1-8 серии из 8)

Перевод: Не требуется, cубтитры: отсутствуют
Формат: HDTV 1080i, MPEG-TS, H.264, MP3
Страна: Россия
Режиссер: Александр Баранов
Жанр: комедия, мелодрама
Всего серий: 8
Продолжительность: 8 х ~ 00:50:0
Год выпуска: 2019

В ролях: Максим Аверин, Нина Усатова, Александра Никифорова, Евгений Морозов, Яна Крайнова, Александра Каштанова, Алексей Коряков, Анна Якунина, Дмитрий Тополь, Матвей Зубалевич, Бибигуль Актан-Суюншалина, Олег Масленников-Войтов, Виолетта Давыдовская, Ариэль Ласкер, Сергей Белоголовцев, Екатерина Вуличенко, Михаил Богдасаров, Ольга Дегтярёва, Михаил Присмотров, Евгений Клинков, Михсил Негин, Владимир Дубровский (II), Елена Котельникова, Евгений Крылов, сергей Фатьянов, Дмитрий Верста, Роберт Салахов, Глеб Козляев, Софья Терехова-Багратиони, Кирилл Петров, Татьяна Корабельщикова

Описание: 1977 год. Идейная комсомолка Катя после окончания пединститута отправляется в военный гарнизон Солнечный к своему жениху, с которым знакома только по переписке. На месте выясняется, что Катя нарвалась на афериста, который выдавал себя за командира дивизии, а настоящий генерал Кузин никогда не слышал о Кате! По закону подлости их разговор слышит корреспондент местной газеты. То ли из вредности, то ли по ошибке журналист публикует совместный снимок Кати и генерала. Одна нелепая ошибка круто меняет жизнь героев, порождая массу комичных, а подчас и романтических приключений.
«Сердцу не прикажешь»

Рейтинг и доп. информация:


Видео: 1920x1080, (16:9), 25 fps, AVC MPEG-TS (x264), High@L4 ~ 7100 kbps , 0.138 bit/pixel
Аудио: 48 kHz, MPEG Layer 2, 2 ch, ~192.00 kbps avg
Общее
Идентификатор : 1 (0x1)
Полное имя : C:\Nevesta.komdiva.2019.HDTV.1080i\Nevesta.komdiva.01.2019.HDTV.1080i.ts
Формат : MPEG-TS
Размер файла : 2,75 Гбайт
Продолжительность : 51 м. 26 с.
Режим общего битрейта : Переменный
Общий поток : 7651 Кбит/сек

Видео
Идентификатор : 2911 (0xB5F)
Идентификатор меню : 1379 (0x563)
Формат : AVC
Формат/Информация : Advanced Video Codec
Профиль формата : High@L4
Настройки формата : CABAC / 4 Ref Frames
Параметр CABAC формата : Да
Параметр RefFrames формата : 4 кадра
Идентификатор кодека : 27
Продолжительность : 51 м. 25 с.
Битрейт : 7100 Кбит/сек
Ширина : 1920 пикселей
Высота : 1080 пикселей
Соотношение сторон : 16:9
Частота кадров : 25,000 кадров/сек
Цветовое пространство : YUV
Субдискретизация насыщенности : 4:2:0
Битовая глубина : 8 бит
Тип развёртки : MBAFF
Метод сохранения типа развёртки : Чередующиеся поля
Порядок развёртки : Верхнее поле первое
Бит/(Пиксели*Кадры) : 0.138
Размер потока : 2,54 Гбайт (93%)

Аудио
Идентификатор : 2912 (0xB60)
Идентификатор меню : 1379 (0x563)
Формат : MPEG Audio
Версия формата : Version 1
Профиль формата : Layer 2
Идентификатор кодека : 3
Продолжительность : 51 м. 25 с.
Вид битрейта : Постоянный
Битрейт : 192 Кбит/сек
Каналы : 2 канала
Частота : 48,0 КГц
Частота кадров : 41,667 кадра/сек (1152 SPF)
Метод сжатия : С потерями
Задержка видео : -200 мс.
Размер потока : 70,6 Мбайт (3%)
Язык : Russian






   Похожие торренты   Торрент   Размер 
В этой теме нет новых непрочитанных сообщений. Заколдованный Участок (1-10 серии из 10) (Александр Баранов) [2006, комедия, мелодрама, WEBRip]

4 | 1

7.21 ГБ

В этой теме нет новых непрочитанных сообщений. Триада (1-7 серии из 16) (Дмитрий Дьяченко) [2019, комедия, мелодрама, HDTV 1080i]

0 | 0

7.38 ГБ

В этой теме нет новых непрочитанных сообщений. Триада (1-11 серии из 16) (Дмитрий Дьяченко) [2019, комедия, мелодрама, HDTV 1080i]

0 | 0

11.42 ГБ

В этой теме нет новых непрочитанных сообщений. Триада (1-3 серии из 16) (Дмитрий Дьяченко) [2019, комедия, мелодрама, HDTV 1080i]

37 | 10

3.48 ГБ

В этой теме нет новых непрочитанных сообщений. Триада (1-9 серии из 16) (Дмитрий Дьяченко) [2019, комедия, мелодрама, HDTV 1080i]

4 | 8

9.4 ГБ

В этой теме нет новых непрочитанных сообщений. Триада (1-6 серии из 16) (Дмитрий Дьяченко) [2019, комедия, мелодрама, HDTV 1080i]

0 | 0

6.47 ГБ

В этой теме нет новых непрочитанных сообщений. Триада (1-10 серии из 16) (Дмитрий Дьяченко) [2019, комедия, мелодрама, HDTV 1080i]

20 | 23

10.43 ГБ




Вы не можете начинать темы
Вы не можете отвечать на сообщения
Вы не можете редактировать свои сообщения
Вы не можете удалять свои сообщения
Вы не можете добавлять вложения

Перейти:  
 Вход
ppkBB3cker v.2 © 2008-2014 @ PPK
[ Time : 0.073s | 18 Queries | GZIP : Off ]

cron