img image001 image001 image001 image001 image001 image001 image001 image001 image001 image001 image001 image001 image001 image001 image001

Planets Sun Sun Sun
Статистика раздачи
Автор: Снежана | Размер: 2.63 ГБ | Добавлен: 25 мар 2020
Раздают: 124    Качают: 248

Скачать торрент
Скачать торрент
Описание торрента

СообщениеДобавлено: 25 мар 2020 

Патриот (1 сезон: 1-10 серии из 16)

Формат: SATRip-AVC, MKV, H.264, MP3
Режиссер: Николай Бурлак
Жанр: Комедия, ситком
Продолжительность: 10 x ~ 00:25:00
Год выпуска: 2020
В ролях: Антон Жижин, Алёна Савастова, Анастасия Талызина, Владимир Сычёв, Анастасия Самбурская, Алексей Базанов, Валентина Лукащук, Антон Никушин, Юлия Полынская
Описание:
Главный герой сериала после службы по контракту возвращается в родной провинциальный городок. Здесь он решает устроиться на время охранником в круглосуточный магазин. Честный, патриотично настроенный и очень деятельный Саня, верящий в великую Россию, всячески старается вписаться в гражданскую жизнь.



Видео: 720x336 (2.14:1), 25 fps, AVC Н.264 ~1500 kbps avg, 0.248 bit/pixel
Аудио: 48 kHz, MPEG Layer 3, 2 ch, ~128.00 kbps avg

Доп. информация:
Без рекламы!

Внимание! Раздача ведётся путём добавления новых серий. При каждом добавлении создаётся новый торрент.
Чтобы начать докачку новой серии, пользователям необходимо сделать следующее:
1. Остановить скачивание.
2. Удалить старый торрент у себя из клиента (старые серии удалять не надо).
3. Скачать новый торрент и запустить его у себя в клиенте вместо старого, при этом указать клиенту путь в старую папку куда и должно происходить скачивание новых серий. Ваш клиент при этом должен произвести хеширование (проверку) старой папки и будет докачивать только те серии, которых у вас ещё нет. Старые серии при этом не удаляются, а продолжают раздаваться! Eсли вы уже удалили старые серии, то предотвратить повторную закачку старых серий можно, отжав галочку в соответствующих местах при запуске нового торрента.

Общее
Уникальный идентификатор : 192717225288876881082142076270239110363 (0x90FBFCCCB06503A8DC4030A8614554DB)
Полное имя : C:\Users\Astarot999\Downloads\Патриот\S01E01.mkv
Формат : Matroska
Версия формата : Version 4
Размер файла : 262 Мбайт
Продолжительность : 22 м. 6 с.
Общий поток : 1656 Кбит/сек
Программа кодирования : Lavf57.25.100
Библиотека кодирования : Lavf57.25.100

Видео
Идентификатор : 1
Формат : AVC
Формат/Информация : Advanced Video Codec
Профиль формата : High@L4
Настройки формата : CABAC / 5 Ref Frames
Параметр CABAC формата : Да
Параметр RefFrames формата : 5 кадров
Идентификатор кодека : V_MPEG4/ISO/AVC
Продолжительность : 22 м. 6 с.
Битрейт : 1500 Кбит/сек
Ширина : 720 пикселей
Высота : 336 пикселей
Соотношение сторон : 2,134
Соотношение сторон в оригинале : 2,137
Режим частоты кадров : Постоянный
Частота кадров : 25,000 кадров/сек
Цветовое пространство : YUV
Субдискретизация насыщенности : 4:2:0
Битовая глубина : 8 бит
Тип развёртки : Прогрессивная
Бит/(Пиксели*Кадры) : 0.248
Размер потока : 237 Мбайт (90%)
Библиотека кодирования : x264 core 155 r2901 7d0ff22
Настройки программы : cabac=1 / ref=5 / deblock=1:0:0 / analyse=0x3:0x113 / me=hex / subme=8 / psy=1 / psy_rd=1.00:0.00 / mixed_ref=1 / me_range=16 / chroma_me=1 / trellis=2 / 8x8dct=1 / cqm=0 / deadzone=21,11 / fast_pskip=1 / chroma_qp_offset=-2 / threads=10 / lookahead_threads=1 / sliced_threads=0 / nr=0 / decimate=1 / interlaced=0 / bluray_compat=0 / constrained_intra=0 / bframes=3 / b_pyramid=2 / b_adapt=1 / b_bias=0 / direct=3 / weightb=1 / open_gop=0 / weightp=2 / keyint=250 / keyint_min=25 / scenecut=40 / intra_refresh=0 / rc_lookahead=50 / rc=2pass / mbtree=1 / bitrate=1500 / ratetol=1.0 / qcomp=0.60 / qpmin=0 / qpmax=69 / qpstep=4 / cplxblur=20.0 / qblur=0.5 / vbv_maxrate=25000 / vbv_bufsize=31250 / nal_hrd=none / filler=0 / ip_ratio=1.40 / aq=1:1.00
Default : Да
Forced : Нет
Цветовой диапазон : Limited
Основные цвета : BT.601 PAL
Характеристики трансфера : BT.709
Коэффициенты матрицы : BT.601

Аудио
Идентификатор : 2
Формат : MPEG Audio
Версия формата : Version 1
Профиль формата : Layer 3
Настройки формата : Joint stereo / MS Stereo
Идентификатор кодека : A_MPEG/L3
Идентификатор кодека/Подсказка : MP3
Продолжительность : 22 м. 6 с.
Вид битрейта : Постоянный
Битрейт : 128 Кбит/сек
Каналы : 2 канала
Частота : 48,0 КГц
Метод сжатия : С потерями
Задержка видео : 16 мс.
Размер потока : 20,2 Мбайт (8%)
Библиотека кодирования : LAME3.100
Default : Да
Forced : Нет








   Похожие торренты   Торрент   Размер 
В этой теме нет новых непрочитанных сообщений. Патриот (1 сезон: 1-8 серии из 16) (Николай Бурлак) [2020, Комедия, ситком, SATRip-AVC]

33 | 33

2.12 ГБ

В этой теме нет новых непрочитанных сообщений. Патриот (1 сезон: 1-9 серии из 16) (Николай Бурлак) [2020, Комедия, ситком, SATRip-AVC]

0 | 0

2.38 ГБ

В этой теме нет новых непрочитанных сообщений. Патриот (1-10 серии из 17) (Николай Бурлак) [2020, комедия, WEBRip-AVC]

6 | 7

3.55 ГБ

В этой теме нет новых непрочитанных сообщений. Патриот (1-8 серии из 17) (Николай Бурлак) [2020, комедия, WEBRip-AVC]

12 | 25

2.4 ГБ

В этой теме нет новых непрочитанных сообщений. Патриот (1-9 серии из 17) (Николай Бурлак) [2020, комедия, WEBRip-AVC]

0 | 0

2.7 ГБ

В этой теме нет новых непрочитанных сообщений. Патриот (1-10 серии из 17) (Николай Бурлак) [2020, комедия, WEBRip-AVC]

10 | 5

2.96 ГБ

В этой теме нет новых непрочитанных сообщений. Патриот (1-9 серии из 17) (Николай Бурлак) [2020, комедия, WEBRip-AVC]

0 | 0

3.22 ГБ




Вы не можете начинать темы
Вы не можете отвечать на сообщения
Вы не можете редактировать свои сообщения
Вы не можете удалять свои сообщения
Вы не можете добавлять вложения

Перейти:  
 Вход
ppkBB3cker v.2 © 2008-2014 @ PPK
[ Time : 0.036s | 18 Queries | GZIP : Off ]

cron