img image001 image001 image001 image001 image001 image001 image001 image001 image001 image001 image001 image001 image001 image001 image001

Planets Sun Sun Sun
Статистика раздачи
Автор: Снежана | Размер: 8.84 ГБ | Добавлен: 25 мар 2020
Раздают: 0    Качают: 0

Скачать торрент
Скачать торрент
Описание торрента

СообщениеДобавлено: 25 мар 2020 

Патриот (1-10 серии из 17)

Перевод: Не требуется, cубтитры: отсутствуют
Формат: HDTV 1080i, MPEG-TS, H.264, MP2
Страна: Россия
Режиссер: Николай Бурлак
Жанр: комедия
Всего серий: 17
Продолжительность: 10 x ~ 00:25:00
Год выпуска: 2020

В ролях: Антон Жижин, Анастасия Талызина, Алексей Базанов, Валентина Лукащук, Алёна Савастова, Дмитрий Журавлёв, Георгий Бергал, Евгения Капралова, Никита Тарасов, Григорий Дудник, Владимир Афанасьев (III) (Нигатив), Василий Березин, Владимир Сычёв, Юлианна Михневич, Галина Петрова, Вильма Кутавичюте

Описание: Спецназовец Саня Кучин вернулся со службы в родной городок, чтобы навести порядок. У Сани – честного и доброго солдата будто бы из русских сказок – есть мечта: он хочет, чтобы Россия стала лучшей страной на свете, и люди в ней жили хорошо. Саня – идеальный герой в неидеальном мире. Но есть у него и своя личная слабость – Ленка Сысарина. Кучин любит ее со школьных времен и думает, что девушку надо добиваться. Но реальная жизнь – это не армия, в которой все устроено четко по уставу – особенно в отношениях. Пока Саня пытается обратить на себя внимание Ленки, которой больше всего хотелось бы уехать в Москву и стать звездой, по нему сохнет Катюха – простоватая девица, готовая принять Саню любым, ведь для нее он – настоящий мужик, не то, что остальные: гопники, бывшие наркоманы, неплательщики алиментов. Порой Сане кажется, что перевоспитать земляков можно только кнутом, но вот незадача: он подал документы в академию ФСБ, а для того, чтобы пройти проверку, ему надо вести себя сдержанно. Сможет ли Кучин не поддаться искушению решать проблемы силой, разберется ли он в отношениях с женщинами и получится ли у него хоть на сантиметр приблизиться к благородной цели?

Рейтинг и доп. информация:


Видео: 1920x1080, (16:9), 25 fps, AVC MPEG-TS (x264), High@L4 ~ 5500 kbps , 0.106 bit/pixel
Аудио: 48 kHz, MPEG Layer 2, 2 ch, ~192.00 kbps avg
Внимание! Раздача ведётся путём добавления новых серий. При каждом добавлении создаётся новый торрент.
Чтобы начать докачку новой серии, пользователям необходимо сделать следующее:
1. Остановить скачивание.
2. Удалить старый торрент у себя из клиента (старые серии удалять не надо).
3. Скачать новый торрент и запустить его у себя в клиенте вместо старого, при этом указать клиенту путь в старую папку куда и должно происходить скачивание новых серий. Ваш клиент при этом должен произвести хеширование (проверку) старой папки и будет докачивать только те серии, которых у вас ещё нет. Старые серии при этом не удаляются, а продолжают раздаваться! Eсли вы уже удалили старые серии, то предотвратить повторную закачку старых серий можно, отжав галочку в соответствующих местах при запуске нового торрента.


Общее
Идентификатор : 1 (0x1)
Полное имя : C:\Patriot.2020.HDTV.(1080i).ExKinoRay\Patriot.E01.2020.HDTV.(1080i).ExKinoRay.ts
Формат : MPEG-TS
Размер файла : 946 Мбайт
Продолжительность : 22 м. 9 с.
Режим общего битрейта : Переменный
Общий поток : 5969 Кбит/сек

Видео
Идентификатор : 211 (0xD3)
Идентификатор меню : 2207 (0x89F)
Формат : AVC
Формат/Информация : Advanced Video Codec
Профиль формата : High@L4
Настройки формата : CABAC / 4 Ref Frames
Параметр CABAC формата : Да
Параметр RefFrames формата : 4 кадра
Идентификатор кодека : 27
Продолжительность : 22 м. 9 с.
Битрейт : 5481 Кбит/сек
Ширина : 1920 пикселей
Высота : 1080 пикселей
Соотношение сторон : 16:9
Частота кадров : 25,000 кадров/сек
Стандарт вещания : Component
Цветовое пространство : YUV
Субдискретизация насыщенности : 4:2:0
Битовая глубина : 8 бит
Тип развёртки : Чересстрочная
Метод сохранения типа развёртки : Раздельные поля
Порядок развёртки : Верхнее поле первое
Бит/(Пиксели*Кадры) : 0.106
Размер потока : 868 Мбайт (92%)
Цветовой диапазон : Limited
Основные цвета : BT.709
Характеристики трансфера : BT.709
Коэффициенты матрицы : BT.709

Аудио
Идентификатор : 221 (0xDD)
Идентификатор меню : 2207 (0x89F)
Формат : MPEG Audio
Версия формата : Version 1
Профиль формата : Layer 2
Идентификатор кодека : 3
Продолжительность : 22 м. 9 с.
Вид битрейта : Постоянный
Битрейт : 192 Кбит/сек
Каналы : 2 канала
Частота : 48,0 КГц
Частота кадров : 41,667 кадра/сек (1152 SPF)
Метод сжатия : С потерями
Задержка видео : -80 мс.
Размер потока : 30,4 Мбайт (3%)
Язык : Russian






   Похожие торренты   Торрент   Размер 
В этой теме нет новых непрочитанных сообщений. Патриот (1-9 серии из 17) (Николай Бурлак) [2020, комедия, HDTV 1080i]

55 | 279

8 ГБ

В этой теме нет новых непрочитанных сообщений. Патриот (1-8 серии из 17) (Николай Бурлак) [2020, комедия, HDTV 1080i]

0 | 0

7.06 ГБ

В этой теме нет новых непрочитанных сообщений. Патриот (1-10 серии из 17) (Николай Бурлак) [2020, комедия, WEBRip]

26 | 31

2.92 ГБ

В этой теме нет новых непрочитанных сообщений. Патриот (1-9 серии из 17) (Николай Бурлак) [2020, комедия, WEBRip]

4 | 7

2.65 ГБ

В этой теме нет новых непрочитанных сообщений. Патриот (1-8 серии из 17) (Николай Бурлак) [2020, комедия, WEBRip]

191 | 103

2.35 ГБ

В этой теме нет новых непрочитанных сообщений. Патриот (1-10 серии из 17) (Николай Бурлак) [2020, комедия, WEBRip 1080p]

0 | 0

7.44 ГБ

В этой теме нет новых непрочитанных сообщений. Патриот (1-10 серии из 17) (Николай Бурлак) [2020, комедия, WEBRip-AVC]

6 | 7

3.55 ГБ




Вы не можете начинать темы
Вы не можете отвечать на сообщения
Вы не можете редактировать свои сообщения
Вы не можете удалять свои сообщения
Вы не можете добавлять вложения

Перейти:  
 Вход
ppkBB3cker v.2 © 2008-2014 @ PPK
[ Time : 0.031s | 16 Queries | GZIP : Off ]

cron