img image001 image001 image001 image001 image001 image001 image001 image001 image001 image001 image001 image001 image001 image001 image001

Planets Sun Sun Sun

COVID-19 - Последняя информация о коронавирусе на сайте Минздрава | СИДИТЕ ДОМА!


Статистика раздачи
Автор: Снежана | Размер: 3.1 ГБ | Добавлен: 25 мар 2020
Раздают: 0    Качают: 0

Скачать торрент
Скачать торрент
Описание торрента

СообщениеДобавлено: 25 мар 2020 

Колл-центр (1-2 серии из 8)

Перевод: Не требуется, cубтитры: отсутствуют
Формат: WEBRip 1080p, MKV, H.264, AC3
Страна: Россия
Режиссер: Наташа Меркулова, Алексей Чупов
Жанр: триллер, драма, мистика
Всего серий: 8
Продолжительность: 2 x ~ 00:45:00
Год выпуска: 2019

В ролях: Павел Табаков, Владимир Яглыч, Юлия Хлынина, Анатолий Белый, Сабина Ахмедова, Мадлен Джабраилова, Никита Тарасов, Аскар Нигамедзянов, Зоя Кайдановская, Полина Пушкарук, Ольга Веникова, Леван Хурция, Стася Милославская, Тарас Епифанцев, Константин Белошапка, Наталья Кудряшова, Алиса Сельникова, Егор Шереметьев, Екатерина Волкова, Антон Ерёмин

Описание: Москва. Высотка. Здесь, на 25-м этаже находится офис колл-центра «Интернет-магазин для взрослых». Однажды утром, как обычно придя на работу, его двенадцать сотрудников вдруг узнают, что в помещении - бомба. Голоса неизвестных, представившихся Папой и Мамой, угрожают взорвать ее в любой момент, если заложники не будут выполнять их указания. Пока тикает бомба, им предстоит испытать на себе абсолютную власть невидимых садистов и узнать о жизни друг друга такое, о чём они даже не подозревали.

Рейтинг и доп. информация:


Видео: 1920x864, (2,222:1), 25 fps, AVC MPEG-4 (x264), High@L4 ~ 4500 kbps , 0.105 bit/pixel
Аудио: 48 kHz, АС3, 2/0 (L,R), ~192.00 kbps avg
Внимание! Раздача ведётся путём добавления новых серий. При каждом добавлении создаётся новый торрент.
Чтобы начать докачку новой серии, пользователям необходимо сделать следующее:
1. Остановить скачивание.
2. Удалить старый торрент у себя из клиента (старые серии удалять не надо).
3. Скачать новый торрент и запустить его у себя в клиенте вместо старого, при этом указать клиенту путь в старую папку куда и должно происходить скачивание новых серий. Ваш клиент при этом должен произвести хеширование (проверку) старой папки и будет докачивать только те серии, которых у вас ещё нет. Старые серии при этом не удаляются, а продолжают раздаваться! Eсли вы уже удалили старые серии, то предотвратить повторную закачку старых серий можно, отжав галочку в соответствующих местах при запуске нового торрента.


Версия 18+. ВНИМАНИЕ! Присутствует ненормативная лексика.

Общее
Уникальный идентификатор : 176924337879700994721975572052822295943 (0x851A63555DD5E809A0B1073CEB298587)
Полное имя : C:\Koll-centr.S01.2020.WEB-DL.(1080p).Getty\Koll-centr.s01e01.2020.WEB-DL.(1080p).Getty.mkv
Формат : Matroska
Версия формата : Version 4
Размер файла : 1,42 Гбайт
Продолжительность : 44 м. 44 с.
Режим общего битрейта : Переменный
Общий поток : 4551 Кбит/сек
Название фильма : Koll-centr.s01e01.2020.WEB-DL.(1080p).Getty
Дата кодирования : UTC 2020-03-23 19:03:28
Программа кодирования : mkvmerge v7.8.0 (''River Man'') 32bit built on Mar 27 2015 16:18:02
Библиотека кодирования : libebml v1.3.1 + libmatroska v1.4.2

Видео
Идентификатор : 1
Формат : AVC
Формат/Информация : Advanced Video Codec
Профиль формата : High@L4
Настройки формата : CABAC / 1 Ref Frames
Параметр CABAC формата : Да
Параметр RefFrames формата : 1 кадр
Параметр GOP формата : M=1, N=50
Идентификатор кодека : V_MPEG4/ISO/AVC
Продолжительность : 44 м. 44 с.
Вид битрейта : Переменный
Битрейт : 4357 Кбит/сек
Максимальный битрейт : 4500 Кбит/сек
Ширина : 1920 пикселей
Высота : 864 пикселя
Соотношение сторон : 2,222
Режим частоты кадров : Постоянный
Частота кадров : 25,000 кадров/сек
Цветовое пространство : YUV
Субдискретизация насыщенности : 4:2:0
Битовая глубина : 8 бит
Тип развёртки : Прогрессивная
Бит/(Пиксели*Кадры) : 0.105
Размер потока : 1,36 Гбайт (96%)
Default : Да
Forced : Нет

Аудио
Идентификатор : 2
Формат : AC-3
Формат/Информация : Audio Coding 3
Коммерческое название : Dolby Digital
Идентификатор кодека : A_AC3
Продолжительность : 44 м. 44 с.
Вид битрейта : Постоянный
Битрейт : 192 Кбит/сек
Каналы : 2 канала
ChannelLayout : L R
Частота : 48,0 КГц
Частота кадров : 31,250 кадров/сек (1536 SPF)
Метод сжатия : С потерями
Размер потока : 61,4 Мбайт (4%)
ServiceKind/String : Complete Main
Default : Да
Forced : Нет









   Похожие торренты   Торрент   Размер 
В этой теме нет новых непрочитанных сообщений. Колл-центр (1-5 серии из 8) (Наташа Меркулова, Алексей Чупов) [2019, триллер, драма, мистика, WEBRip 1080p]

0 | 0

7.75 ГБ

В этой теме нет новых непрочитанных сообщений. Колл-центр (1-2 серии из 8) (Наташа Меркулова, Алексей Чупов) [2019, триллер, драма, мистика, WEBRip-AVC]

1 | 1

1.49 ГБ

В этой теме нет новых непрочитанных сообщений. Колл-центр (1-5 серии из 8) (Наташа Меркулова, Алексей Чупов) [2019, триллер, драма, мистика, WEBRip-AVC]

0 | 0

3.06 ГБ

В этой теме нет новых непрочитанных сообщений. Колл-центр (1-2 серии из 8) (Наташа Меркулова, Алексей Чупов) [2019, триллер, драма, мистика, WEBRip-AVC]

1 | 1

1.22 ГБ

В этой теме нет новых непрочитанных сообщений. Колл-центр (1-5 серии из 8) (Наташа Меркулова, Алексей Чупов) [2019, триллер, драма, мистика, WEBRip 720p]

0 | 0

5.27 ГБ

В этой теме нет новых непрочитанных сообщений. Колл-центр (1-5 серии из 8) (Наташа Меркулова, Алексей Чупов) [2019, триллер, драма, мистика, WEBRip-AVC]

18 | 9

3.75 ГБ

В этой теме нет новых непрочитанных сообщений. Колл-центр (1-2 серии из 8) (Наташа Меркулова, Алексей Чупов) [2019, триллер, драма, мистика, WEBRip 720p]

8 | 10

2.1 ГБ




Вы не можете начинать темы
Вы не можете отвечать на сообщения
Вы не можете редактировать свои сообщения
Вы не можете удалять свои сообщения
Вы не можете добавлять вложения

Перейти:  
 Вход
ppkBB3cker v.2 © 2008-2014 @ PPK
[ Time : 0.020s | 16 Queries | GZIP : Off ]

cron