img image001 image001 image001 image001 image001 image001 image001 image001 image001 image001 image001 image001 image001 image001 image001

Planets Sun Sun Sun

COVID-19 - Последняя информация о коронавирусе на сайте Минздрава


Статистика раздачи
Автор: Снежана | Размер: 1.49 ГБ | Добавлен: 25 мар 2020
Раздают: 0    Качают: 0
Скачать торрент
Скачать торрент
Описание торрента

СообщениеДобавлено: 25 мар 2020 

Колл-центр (1-2 серии из 8)

Перевод: Не требуется, cубтитры: отсутствуют
Формат: WEBRip-AVC, MKV, H.264, AC3
Страна: Россия
Режиссер: Наташа Меркулова, Алексей Чупов
Жанр: триллер, драма, мистика
Всего серий: 8
Продолжительность: 2 x ~ 00:45:00
Год выпуска: 2019

В ролях: Павел Табаков, Владимир Яглыч, Юлия Хлынина, Анатолий Белый, Сабина Ахмедова, Мадлен Джабраилова, Никита Тарасов, Аскар Нигамедзянов, Зоя Кайдановская, Полина Пушкарук, Ольга Веникова, Леван Хурция, Стася Милославская, Тарас Епифанцев, Константин Белошапка, Наталья Кудряшова, Алиса Сельникова, Егор Шереметьев, Екатерина Волкова, Антон Ерёмин

Описание: Москва. Высотка. Здесь, на 25-м этаже находится офис колл-центра «Интернет-магазин для взрослых». Однажды утром, как обычно придя на работу, его двенадцать сотрудников вдруг узнают, что в помещении - бомба. Голоса неизвестных, представившихся Папой и Мамой, угрожают взорвать ее в любой момент, если заложники не будут выполнять их указания. Пока тикает бомба, им предстоит испытать на себе абсолютную власть невидимых садистов и узнать о жизни друг друга такое, о чём они даже не подозревали.

Рейтинг и доп. информация:


Видео: 1024x460, (2,226:1), 25 fps, AVC MPEG-4 (x264), ~ 2000 kbps , 0.170 bit/pixel
Аудио: 48 kHz, АС3, 2/0 (L,R), ~192.00 kbps avg
Внимание! Раздача ведётся путём добавления новых серий. При каждом добавлении создаётся новый торрент.
Чтобы начать докачку новой серии, пользователям необходимо сделать следующее:
1. Остановить скачивание.
2. Удалить старый торрент у себя из клиента (старые серии удалять не надо).
3. Скачать новый торрент и запустить его у себя в клиенте вместо старого, при этом указать клиенту путь в старую папку куда и должно происходить скачивание новых серий. Ваш клиент при этом должен произвести хеширование (проверку) старой папки и будет докачивать только те серии, которых у вас ещё нет. Старые серии при этом не удаляются, а продолжают раздаваться! Eсли вы уже удалили старые серии, то предотвратить повторную закачку старых серий можно, отжав галочку в соответствующих местах при запуске нового торрента.


Версия 18+. ВНИМАНИЕ! Присутствует ненормативная лексика.

Общее
Уникальный идентификатор : 194523723253269215637220807647065293296 (0x9257E80699BEDCF8AF838B9C483841F0)
Полное имя : G:Koll-centr.S01.2020.WEB-DLRip.(AVC).ExKinoRayKoll-centr.S01.E01.2020.WEB-DLRip.(AVC).ExKinoRay.mkv
Формат : Matroska
Версия формата : Version 2
Размер файла : 702 Мбайт
Продолжительность : 44 м. 44 с.
Общий поток : 2194 Кбит/сек
Дата кодирования : UTC 2020-03-23 19:42:16
Программа кодирования : mkvmerge v7.8.0 (''River Man'') 32bit built on Apr 3 2015 12:11:22
Библиотека кодирования : libebml v1.3.1 + libmatroska v1.4.2

Видео
Идентификатор : 1
Формат : AVC
Формат/Информация : Advanced Video Codec
Профиль формата :
Настройки формата : CABAC / 10 Ref Frames
Параметр CABAC формата : Да
Параметр RefFrames формата : 10 кадров
Идентификатор кодека : V_MPEG4/ISO/AVC
Продолжительность : 44 м. 44 с.
Битрейт : 2000 Кбит/сек
Ширина : 1024 пикселя
Высота : 460 пикселей
Соотношение сторон : 2,226
Режим частоты кадров : Постоянный
Частота кадров : 25,000 кадров/сек
Цветовое пространство : YUV
Субдискретизация насыщенности : 4:2:0
Битовая глубина : 8 бит
Тип развёртки : Прогрессивная
Бит/(Пиксели*Кадры) : 0.170
Размер потока : 627 Мбайт (89%)
Библиотека кодирования : x264 core 146 r2538 121396c
Настройки программы : cabac=1 / ref=10 / deblock=1:-3:-3 / analyse=0x3:0x113 / me=umh / subme=11 / psy=1 / psy_rd=1.00:0.20 / mixed_ref=1 / me_range=32 / chroma_me=1 / trellis=2 / 8x8dct=1 / cqm=0 / deadzone=21,11 / fast_pskip=1 / chroma_qp_offset=-3 / threads=24 / lookahead_threads=7 / sliced_threads=0 / nr=0 / decimate=0 / interlaced=0 / bluray_compat=0 / constrained_intra=0 / bframes=11 / b_pyramid=2 / b_adapt=2 / b_bias=0 / direct=3 / weightb=1 / open_gop=0 / weightp=2 / keyint=250 / keyint_min=25 / scenecut=40 / intra_refresh=0 / rc_lookahead=60 / rc=2pass / mbtree=1 / bitrate=2000 / ratetol=1.0 / qcomp=0.60 / qpmin=0 / qpmax=69 / qpstep=4 / cplxblur=20.0 / qblur=0.5 / vbv_maxrate=14000 / vbv_bufsize=14000 / nal_hrd=none / filler=0 / ip_ratio=1.40 / aq=3:1.40
Default : Да
Forced : Нет
Цветовой диапазон : Limited
Основные цвета : BT.709
Характеристики трансфера : BT.709
Коэффициенты матрицы : BT.709

Аудио
Идентификатор : 2
Формат : AC-3
Формат/Информация : Audio Coding 3
Идентификатор кодека : A_AC3
Продолжительность : 44 м. 44 с.
Вид битрейта : Постоянный
Битрейт : 192 Кбит/сек
Каналы : 2 канала
Расположение каналов : Front: L R
Частота : 48,0 КГц
Частота кадров : 31,250 кадров/сек (1536 SPF)
Битовая глубина : 16 бит
Метод сжатия : С потерями
Размер потока : 61,4 Мбайт (9%)
Default : Да
Forced : Нет









   Похожие торренты   Торрент   Размер 
В этой теме нет новых непрочитанных сообщений. Колл-центр (1-8 серии из 8) (Наташа Меркулова, Алексей Чупов) [2019, триллер, драма, мистика, WEBRip-AVC]

43 | 12

5.12 ГБ

В этой теме нет новых непрочитанных сообщений. Колл-центр (1-8 серии из 8) (Наташа Меркулова, Алексей Чупов) [2019, триллер, драма, мистика, WEBRip-AVC]

53 | 35

6.26 ГБ

В этой теме нет новых непрочитанных сообщений. Колл-центр (1-5 серии из 8) (Наташа Меркулова, Алексей Чупов) [2019, триллер, драма, мистика, WEBRip-AVC]

1 | 2

3.06 ГБ

В этой теме нет новых непрочитанных сообщений. Колл-центр (1-2 серии из 8) (Наташа Меркулова, Алексей Чупов) [2019, триллер, драма, мистика, WEBRip-AVC]

1 | 0

1.22 ГБ

В этой теме нет новых непрочитанных сообщений. Колл-центр (1-5 серии из 8) (Наташа Меркулова, Алексей Чупов) [2019, триллер, драма, мистика, WEBRip-AVC]

18 | 9

3.75 ГБ

В этой теме нет новых непрочитанных сообщений. Колл-центр (1- серии из 8) (Наташа Меркулова, Алексей Чупов) [2020, триллер, драма, мистика, WEBRip-AVC]

0 | 0

702.22 МБ

В этой теме нет новых непрочитанных сообщений. Колл-центр (1- серии из 8) (Наташа Меркулова, Алексей Чупов) [2020, триллер, драма, мистика, WEBRip-AVC]

3 | 0

574.02 МБ




Вы не можете начинать темы
Вы не можете отвечать на сообщения
Вы не можете редактировать свои сообщения
Вы не можете удалять свои сообщения
Вы не можете добавлять вложения

Перейти:  
Контактная информация: dv-phone[пёсик]yandex.ru
 Вход
ppkBB3cker v.2 © 2008-2014 @ PPK
[ Time : 0.028s | 16 Queries | GZIP : Off ]

cron