img image001 image001 image001 image001 image001 image001 image001 image001 image001 image001 image001 image001 image001 image001 image001

Planets Sun Sun Sun

COVID-19 - Последняя информация о коронавирусе на сайте Минздрава | СИДИТЕ ДОМА!


Статистика раздачи
Автор: Снежана | Размер: 21.51 ГБ | Добавлен: 25 мар 2020
Раздают: 3    Качают: 2

Скачать торрент
Скачать торрент
Описание торрента

СообщениеДобавлено: 25 мар 2020 

Проспект обороны (1-10 серии из 16)

Перевод: Не требуется, cубтитры: отсутствуют
Формат: WEBRip 1080p, MKV, H.264, AC3
Страна: Россия
Режиссер: Сергей Быстрицкий, Сергей Винокуров
Жанр: драма, спорт
Всего серий: 16
Продолжительность: 10 ~ 00:49:00
Год выпуска: 2019

В ролях: Олег Фомин, Виктория Романенко, Макар Запорожский, Роман Курцын, Кирилл Варакса, Елена Руфанова, Кирилл Полухин, Марина Даминева, Сергей Колос, Андрей Феськов, Яков Шамшин, Виталий Олечкин, Эрик Кения, Наталья Высочанская, Филипп Дьячков (II), Сергей Кошонин, Алексей Манцыгин, Евгений Карпов, Александр Яцко, Сослан Фидаров, Антон Момот, Юрий Елагин, Мария Капустинская, Маргарита Аброськина, Александра Большакова, Вадим Волков, Вадим Цаллати, Сергей Кудрявцев, Александр Карпухов, Олег Жилин, Алексей Байдаков, Борис Батуев, Ирина Горячева, Павел Юринов, Роман Грибков, Максим Ханжов, Татьяна Захарова, Сергей Русскин, Алексей Митин, Зарина Мухитдинова, Глеб Степан Каллистов, Алексей Федькин, Дмитрий Бакунин, Людмила Бояринова, Снежана Прудько, Андрей Перович, Сергей Воробьёв (IV), Павел Юринов, Максим Меркулов, Марк Гаврилов, Алексей Удальцов, Елена Лопаткина, Елизавета Бойко, Михаил Сидаш, Антон Пулит, Александра Сыдорук, Наталья Корольская, Владимир крылов, Игорь Головин, Игорь Вуколов, Михаил Соловьёв, Андрей чуманов, Алиса Шитикова

Описание: Денис Астахов на глазах у отца Александра, жены Наташи и брата Валентина ввязывается в драку накануне важного боя за звание чемпиона Санкт-Петербурга. Федерация решает отменить бой. Урегулировать ситуацию может только взятка спортивному чиновнику и вмешательство Сергеича, спонсора боксёра Олега Волка. У Александра, делавшего ставку на спортивную карьеру сына, и с другими взрослыми детьми проблемы: дочь Лиза вопреки запрету отца и брата встречается с бандитом по кличке Бандерас, а сын Валентин болезненно переживает развод и своё положение отца-одиночки.

Рейтинг и доп. информация:


Видео: 1920x1080, (16:9), 25 fps, AVC MPEG-4 (x264), ~ 6000 kbps , 0.116 bit/pixel
Аудио: 48 kHz, AC3, 2/0 (L,R) ch, ~192.00 kbps avg
Внимание! Раздача ведётся путём добавления новых серий. При каждом добавлении создаётся новый торрент.
Чтобы начать докачку новой серии, пользователям необходимо сделать следующее:
1. Остановить скачивание.
2. Удалить старый торрент у себя из клиента (старые серии удалять не надо).
3. Скачать новый торрент и запустить его у себя в клиенте вместо старого, при этом указать клиенту путь в старую папку куда и должно происходить скачивание новых серий. Ваш клиент при этом должен произвести хеширование (проверку) старой папки и будет докачивать только те серии, которых у вас ещё нет. Старые серии при этом не удаляются, а продолжают раздаваться! Eсли вы уже удалили старые серии, то предотвратить повторную закачку старых серий можно, отжав галочку в соответствующих местах при запуске нового торрента.


Общее
Уникальный идентификатор : 242197101516054964832269506567716628368 (0xB635770BE6DA2C6D9DCC9DE6CEE26790)
Полное имя : C:\Prospekt.oborony.2019.WEB-DL.(1080p).ExKinoRay\Prospekt.oborony.E01.2019.WEB-DL.(1080p).ExKinoRay.mkv
Формат : Matroska
Версия формата : Version 4
Размер файла : 2,16 Гбайт
Продолжительность : 50 м. 14 с.
Режим общего битрейта : Постоянный
Общий поток : 6151 Кбит/сек
Дата кодирования : UTC 2020-03-18 21:07:13
Программа кодирования : mkvmerge v6.9.1 (''Blue Panther'') 64bit built on Apr 18 2014 18:23:38
Библиотека кодирования : libebml v1.3.0 + libmatroska v1.4.1

Видео
Идентификатор : 1
Формат : AVC
Формат/Информация : Advanced Video Codec
Профиль формата :
Настройки формата : 2 Ref Frames
Параметр CABAC формата : Нет
Параметр RefFrames формата : 2 кадра
Идентификатор кодека : V_MPEG4/ISO/AVC
Продолжительность : 50 м. 14 с.
Вид битрейта : Постоянный
Битрейт : 6000 Кбит/сек
Ширина : 1920 пикселей
Высота : 1080 пикселей
Соотношение сторон : 16:9
Режим частоты кадров : Постоянный
Частота кадров : 25,000 кадров/сек
Стандарт вещания : PAL
Цветовое пространство : YUV
Субдискретизация насыщенности : 4:2:0
Битовая глубина : 8 бит
Тип развёртки : Прогрессивная
Бит/(Пиксели*Кадры) : 0.116
Размер потока : 2,05 Гбайт (95%)
Default : Да
Forced : Нет
Цветовой диапазон : Limited
Основные цвета : BT.709
Характеристики трансфера : BT.709
Коэффициенты матрицы : BT.709

Аудио
Идентификатор : 2
Формат : AC-3
Формат/Информация : Audio Coding 3
Коммерческое название : Dolby Digital
Идентификатор кодека : A_AC3
Продолжительность : 50 м. 14 с.
Вид битрейта : Постоянный
Битрейт : 192 Кбит/сек
Каналы : 2 канала
ChannelLayout : L R
Частота : 48,0 КГц
Частота кадров : 31,250 кадров/сек (1536 SPF)
Метод сжатия : С потерями
Размер потока : 69,0 Мбайт (3%)
Язык : Russian
ServiceKind/String : Complete Main
Default : Да
Forced : Нет









   Похожие торренты   Торрент   Размер 
В этой теме нет новых непрочитанных сообщений. Проспект обороны (1-4 серии из 16) (Сергей Быстрицкий, Сергей Винокуров) [2019, драма, спорт, WEBRip 1080p]

2 | 2

8.55 ГБ

В этой теме нет новых непрочитанных сообщений. Проспект обороны (1-8 серии из 16) (Сергей Быстрицкий, Сергей Винокуров) [2019, драма, спорт, WEBRip 1080p]

4 | 2

17.21 ГБ

В этой теме нет новых непрочитанных сообщений. Проспект обороны (1-16 серии из 16) (Сергей Быстрицкий, Сергей Винокуров) [2019, драма, спорт, WEBRip 1080p, HDTV 1080i]

0 | 0

31.33 ГБ

В этой теме нет новых непрочитанных сообщений. Проспект обороны (1-2 серии из 16) (Сергей Быстрицкий, Сергей Винокуров) [2019, драма, спорт, WEBRip]

8 | 0

1.26 ГБ

В этой теме нет новых непрочитанных сообщений. Проспект обороны (1-10 серии из 16) (Сергей Быстрицкий, Сергей Винокуров) [2019, драма, спорт, WEBRip]

5 | 1

6.3 ГБ

В этой теме нет новых непрочитанных сообщений. Проспект обороны (1-8 серии из 16) (Сергей Быстрицкий, Сергей Винокуров) [2019, драма, спорт, WEBRip]

0 | 0

5.04 ГБ

В этой теме нет новых непрочитанных сообщений. Проспект обороны (1-4 серии из 16) (Сергей Быстрицкий, Сергей Винокуров) [2019, драма, спорт, WEBRip-AVC]

1 | 2

2.34 ГБ




Вы не можете начинать темы
Вы не можете отвечать на сообщения
Вы не можете редактировать свои сообщения
Вы не можете удалять свои сообщения
Вы не можете добавлять вложения

Перейти:  
 Вход
ppkBB3cker v.2 © 2008-2014 @ PPK
[ Time : 0.062s | 18 Queries | GZIP : Off ]

cron