img image001 image001 image001 image001 image001 image001 image001 image001 image001 image001 image001 image001 image001 image001 image001

Planets Sun Sun Sun
Статистика раздачи
Автор: Снежана | Размер: 22.18 ГБ | Добавлен: 25 мар 2020
Раздают: 0    Качают: 1

Скачать торрент
Скачать торрент
Описание торрента

СообщениеДобавлено: 25 мар 2020 

В шаге от рая (1-10 серии из 16)

Перевод: Не требуется, cубтитры: отсутствуют
Формат: HDTV 1080p, MKV, H.264, AC3
Страна: Россия
Режиссер: Евгений Семенов
Жанр: мелодрама, драма
Всего серий: 16
Продолжительность: 10 х~ 00:50:00
Год выпуска: 2020

В ролях: Игорь Бочкин, Ярослав Бойко, Надежда Маркина, Мария Миронова (II), Ольга Павловец, Анна Легчилова, Алиса Лозовская, Сергей Шаталов, Олег Чугунов, Игорь Ботвин, Кирилл Балобан, Евгений Антонов, Анастасия Лифанова, Юлия Рудина, Мария Капустинская, Константин Белошапка, Екатерина Панасюк, Юлия Марченко, Игорь Грабузов, Леонид Закошанский, Мэри Ваха, Руслан Мещанов, Андрей Полищук, Анатолий Кондюбов, Вячеслав Коробицин, Александра Ильвес, Иван Карманов, Геннадий Алимпиев, Геннадий Рязанов, Ярослав Мирошин, Аркадий Коваль, Марианна Семёнова, Юрий Филиппов (II), Анастасия Прохорова

Описание: Это была обычная семья. Не лучше и не хуже других. Они были счастливы, но не понимали этого. В неожиданном крупном лотерейном выигрыше увидели шанс стать такими, каким хотели быть в глазах окружающих – красивыми, успешными, желанными, близкими друзьями, идеальными вторыми половинами. Деньги решили их внешние проблемы, но внутри семьи начался кромешный ад – а ведь им казалось, что они всего лишь в шаге от рая.

Рейтинг и доп. информация:


Видео: 1920x1080, (16:9), 25 fps, AVC MPEG-4 (x264), ~ 6100 kbps , 0.118 bit/pixel
Аудио: 48 kHz, АС3, 2/0 (L,R), ~192.00 kbps avg
Внимание! Раздача ведётся путём добавления новых серий. При каждом добавлении создаётся новый торрент.
Чтобы начать докачку новой серии, пользователям необходимо сделать следующее:
1. Остановить скачивание.
2. Удалить старый торрент у себя из клиента (старые серии удалять не надо).
3. Скачать новый торрент и запустить его у себя в клиенте вместо старого, при этом указать клиенту путь в старую папку куда и должно происходить скачивание новых серий. Ваш клиент при этом должен произвести хеширование (проверку) старой папки и будет докачивать только те серии, которых у вас ещё нет. Старые серии при этом не удаляются, а продолжают раздаваться! Eсли вы уже удалили старые серии, то предотвратить повторную закачку старых серий можно, отжав галочку в соответствующих местах при запуске нового торрента.


Общее
Уникальный идентификатор : 192686482896574598406252668830596855065 (0x90F611152575110E9570DBEB75E1F519)
Полное имя : C:\V shage ot raya 2020 HDTV 1080p.R.G.Generalfilm\V shage ot raya s01.e01.2020.HDTV 1080p.by.White Smoke.R.G.Generalfilm.mkv
Формат : Matroska
Версия формата : Version 4
Размер файла : 2,23 Гбайт
Продолжительность : 49 м. 53 с.
Режим общего битрейта : Постоянный
Общий поток : 6393 Кбит/сек
Название фильма : V shage ot raya s01.e01.2020.HDTV 1080p.by.White Smoke.R.G.Generalfilm.mkv
Дата кодирования : UTC 2020-03-17 09:07:27
Программа кодирования : mkvmerge v6.8.0 (''Theme for Great Cities'') 64bit built on Mar 2 2014 21:34:26
Библиотека кодирования : libebml v1.3.0 + libmatroska v1.4.1
Обложка : Yes
Attachments : cover.jpg

Видео
Идентификатор : 1
Формат : AVC
Формат/Информация : Advanced Video Codec
Профиль формата :
Настройки формата : CABAC / 3 Ref Frames
Параметр CABAC формата : Да
Параметр RefFrames формата : 3 кадра
Идентификатор кодека : V_MPEG4/ISO/AVC
Продолжительность : 49 м. 53 с.
Вид битрейта : Постоянный
Битрейт : 6100 Кбит/сек
Номинальный битрейт : 7051 Кбит/сек
Ширина : 1920 пикселей
Высота : 1080 пикселей
Соотношение сторон : 16:9
Режим частоты кадров : Постоянный
Частота кадров : 25,000 кадров/сек
Стандарт вещания : PAL
Цветовое пространство : YUV
Субдискретизация насыщенности : 4:2:0
Битовая глубина : 8 бит
Тип развёртки : Прогрессивная
Бит/(Пиксели*Кадры) : 0.118
Размер потока : 2,12 Гбайт (95%)
Default : Да
Forced : Нет
Цветовой диапазон : Limited
Основные цвета : BT.709
Характеристики трансфера : BT.709
Коэффициенты матрицы : BT.709

Аудио
Идентификатор : 2
Формат : AC-3
Формат/Информация : Audio Coding 3
Коммерческое название : Dolby Digital
Идентификатор кодека : A_AC3
Продолжительность : 49 м. 53 с.
Вид битрейта : Постоянный
Битрейт : 192 Кбит/сек
Каналы : 2 канала
ChannelLayout : L R
Частота : 48,0 КГц
Частота кадров : 31,250 кадров/сек (1536 SPF)
Метод сжатия : С потерями
Размер потока : 68,5 Мбайт (3%)
ServiceKind/String : Complete Main
Default : Да
Forced : Нет











   Похожие торренты   Торрент   Размер 
В этой теме нет новых непрочитанных сообщений. В шаге от рая (1-6 серии из 16) (Евгений Семенов) [2020, мелодрама, драма, HDTV 1080p]

0 | 0

13.42 ГБ

В этой теме нет новых непрочитанных сообщений. В шаге от рая (1-8 серии из 16) (Евгений Семенов) [2020, мелодрама, драма, HDTV 1080p]

10 | 2

17.79 ГБ

В этой теме нет новых непрочитанных сообщений. В шаге от рая (1-16 серии из 16) (Евгений Семенов) [2020, мелодрама, драма, WEBRip]

88 | 30

10.01 ГБ

В этой теме нет новых непрочитанных сообщений. В шаге от рая (1-8 серии из 16) (Евгений Семенов) [2020, мелодрама, драма, WEBRip]

64 | 28

4.96 ГБ

В этой теме нет новых непрочитанных сообщений. В шаге от рая (1-16 серии из 16) (Евгений Семенов) [2020, мелодрама, драма, WEBRip-AVC]

9 | 4

9.97 ГБ

В этой теме нет новых непрочитанных сообщений. В шаге от рая (1-12 серии из 16) (Евгений Семенов) [2020, мелодрама, драма, HDTVRip 720p]

0 | 0

15.47 ГБ

В этой теме нет новых непрочитанных сообщений. В шаге от рая (1-6 серии из 16) (Евгений Семенов) [2020, мелодрама, драма, HDTVRip 720p]

0 | 0

7.75 ГБ




Вы не можете начинать темы
Вы не можете отвечать на сообщения
Вы не можете редактировать свои сообщения
Вы не можете удалять свои сообщения
Вы не можете добавлять вложения

Перейти:  
 Вход
ppkBB3cker v.2 © 2008-2014 @ PPK
[ Time : 0.027s | 16 Queries | GZIP : Off ]

cron