img image001 image001 image001 image001 image001 image001 image001 image001 image001 image001 image001 image001 image001 image001 image001

Planets Sun Sun Sun

COVID-19 - Последняя информация о коронавирусе на сайте Минздрава


Статистика раздачи
Автор: Снежана | Размер: 13.06 ГБ | Добавлен: 25 мар 2020
Раздают: 0    Качают: 1
Скачать торрент
Скачать торрент
Описание торрента

СообщениеДобавлено: 25 мар 2020 

В клетке (1-9 серии из 10)

Перевод: Не требуется, cубтитры: отсутствуют
Формат: HDTV 1080i, MPEG-TS, H.264, MP2
Страна: Россия
Режиссер: Артем Аксененко
Жанр: драма, криминал, спорт
Всего серий: 10
Продолжительность: 9 х ~ 00:50:00
Год выпуска: 2019

В ролях: Павел Прилучный, Владимир Епифанцев, Екатерина Маликова, Артур Ваха, Никита Кологривый, Зепюр Брутян, Алёна Михайлова, Давид Алавердян, Сослан Фидаров, Юрий Тхагалегов, Даниил Воробьёв, Агата Муцениеце, Лаура Кеосаян, Наталья Парашкина, Алексей Ильин, Роман Грибков, Алёна Вербицкая, Александр Полунин, Дмитрий Ячевский, Сергей Панфёров, Илья Васильев, Александр Соколовский, Александра Шелепова, Сергей Горохов, Алексей Загора, Семён Машаров, Валентина Кошкина, Яна Науменко, Таисия Шипилова, Владимир Кебин, Ольга Карева, Михаил Панферов, Мария Суханова, Екатерина Василенко, Андрей Андреев, Ирина Колодяжная, Игорь Васильев, Евгений Петренко, Алексей Гончаров, Александр Егоров, Алексей Ратков

Описание: В Калининград одновременно возвращаются отец и сын Евдокимовы: Сергей, по прозвищу Волчок вышел после семи лет тюрьмы по 228 статье; его отец, Алексей Евдокимов, сбежал в родной город от проблем в Москве. Сергей, вернувшись домой, не понимает, как жить дальше – он обнаруживает что мать окончательно спилась, а бывшая любовь Ольга его уже и не ждала. Кажется, только младший брат Женя счастлив видеть Волчка. А еще Дилер – бывший одноклассник, который за те несколько лет, что Сергей провел в колонии, поднялся от простого барыги до мафиози средней руки. С момента встречи отца и сына начнётся история о преодолении семейных травм, боли и зависимости. Им предстоит выбирать между долгом и любовью, между жизнью и смертью.

Рейтинг и доп. информация:


Видео: 1920x1080, (16:9), 25 fps, AVC MPEG-TS (x264), Main@L4 ~ 3500 kbps , 0.065 bit/pixel
Аудио: 48 kHz, MPEG Layer 2, 2 ch, ~192.00 kbps avg
Внимание!
Присутствуют откровенные сексуальные сцены
Присутствует ненормативная лексика мата очень много

Без рекламы. Логотипа и "всплывающих" надписей.

Общее
Идентификатор : 1 (0x1)
Полное имя : C:\Users\ADMIN\Desktop\Новая папка\V.kletke.2019.HDTV.(1080i).ExKinoRay\V.kletke.E01.2019.HDTV.(1080i).ExKinoRay.ts
Формат : MPEG-TS
Размер файла : 1,28 Гбайт
Продолжительность : 49 м. 29 с.
Режим общего битрейта : Переменный
Общий поток : 3889 Кбит/сек

Видео
Идентификатор : 211 (0xD3)
Идентификатор меню : 1 (0x1)
Формат : AVC
Формат/Информация : Advanced Video Codec
Профиль формата : Main@L4
Настройки формата : CABAC / 1 Ref Frames
Параметр CABAC формата : Да
Параметр RefFrames формата : 1 кадр
Параметр GOP формата : M=1, N=15
Идентификатор кодека : 27
Продолжительность : 49 м. 28 с.
Битрейт : 3500 Кбит/сек
Ширина : 1920 пикселей
Высота : 1080 пикселей
Соотношение сторон : 16:9
Частота кадров : 25,000 кадров/сек
Цветовое пространство : YUV
Субдискретизация насыщенности : 4:2:0
Битовая глубина : 8 бит
Тип развёртки : Прогрессивная
Бит/(Пиксели*Кадры) : 0.065
Размер потока : 1,15 Гбайт (90%)

Аудио
Идентификатор : 221 (0xDD)
Идентификатор меню : 1 (0x1)
Формат : MPEG Audio
Версия формата : Version 1
Профиль формата : Layer 2
Идентификатор кодека : 3
Продолжительность : 49 м. 28 с.
Вид битрейта : Постоянный
Битрейт : 192 Кбит/сек
Каналы : 2 канала
Частота : 48,0 КГц
Частота кадров : 41,667 кадра/сек (1152 SPF)
Метод сжатия : С потерями
Размер потока : 68,0 Мбайт (5%)
Язык : Russian









   Похожие торренты   Торрент   Размер 
В этой теме нет новых непрочитанных сообщений. В клетке (1-10 серии из 10) (Артем Аксененко) [2019, драма, криминал, спорт, WEBRip-AVC]

28 | 2

5.86 ГБ

В этой теме нет новых непрочитанных сообщений. В клетке (1-6 серии из 10) (Артем Аксененко) [2019, драма, криминал, спорт, WEBRip-AVC]

0 | 0

3.52 ГБ

В этой теме нет новых непрочитанных сообщений. В клетке (1-2 серии из 10) (Артем Аксененко) [2019, драма, криминал, спорт, WEBRip-AVC]

2 | 0

1.24 ГБ

В этой теме нет новых непрочитанных сообщений. В клетке (1-10 серии из 10) (Артем Аксененко) [2019, драма, криминал, спорт, WEBRip-AVC]

34 | 2

6.07 ГБ

В этой теме нет новых непрочитанных сообщений. В клетке (1-2 серии из 10) (Артем Аксененко) [2019, драма, криминал, спорт, WEBRip-AVC]

0 | 0

1.17 ГБ

В этой теме нет новых непрочитанных сообщений. В клетке (1-6 серии из 10) (Артем Аксененко) [2019, драма, криминал, спорт, WEBRip-AVC]

2 | 0

3.64 ГБ

В этой теме нет новых непрочитанных сообщений. В клетке (1-3 серии из 10) (Артем Аксененко) [2019, драма, криминал, спорт, WEBRip-AVC]

1 | 0

1.76 ГБ




Вы не можете начинать темы
Вы не можете отвечать на сообщения
Вы не можете редактировать свои сообщения
Вы не можете удалять свои сообщения
Вы не можете добавлять вложения

Перейти:  
Контактная информация: dv-phone[пёсик]yandex.ru
 Вход
ppkBB3cker v.2 © 2008-2014 @ PPK
[ Time : 0.031s | 18 Queries | GZIP : Off ]

cron