img image001 image001 image001 image001 image001 image001 image001 image001 image001 image001 image001 image001 image001 image001 image001

Planets Sun Sun Sun
Статистика раздачи
Автор: Снежана | Размер: 7.9 ГБ | Добавлен: 25 мар 2020
Раздают: 12    Качают: 6

Скачать торрент
Скачать торрент
Описание торрента

СообщениеДобавлено: 25 мар 2020 

Отражение радуги (1-12 серии из 12)

Перевод: Не требуется, cубтитры: отсутствуют
Формат: WEB-DLRip-AVC, MKV, H.264, AC3
Страна: Россия
Режиссер: Тимур Кабулов
Жанр: детектив, триллер
Всего серий: 12
Продолжительность: 12 x ~ 00:52:58
Год выпуска: 2016

В ролях: Андрей Мерзликин, Наталия Вдовина, Владимир Юматов, Екатерина Волкова, Игорь Скляр, Александра Бортич, Игорь Миркурбанов, Владимир Стержаков, Максим Литовченко, Фёдор Лавров, Александр Макогон, Денис Бургазлиев, Дмитрий Шаракоис, Владимир Капустин, Илья Древнов, Сергей Неудачин, Евгения Осипова, Виктория Маслова, Дмитрий Асташевич, Денис Казандайкин, Алексей Кирсанов, Дмитрий Гудочкин, Александра Чичкова, Елена Финогеева, Татьяна Храмова, Василий Слюсаренко, Елизавета Климова, Александра Булычёва, Вероника Рис, Артём Петров (II), Наталья Петухова, Оксана Дорохина, Мария Антипп, Диана Корсс, Артур Левитан, Алина Титова, Иван Смелик, Екатерина Шмакова, Елена Мироненко, Роман Синицын, Елена Чернявская, Максим Евсеев, Екатерина большакова, Павел Маркин, Евгений Потапенко, Сергей Дунаев, Татьяна Васильева, Олег Никитин, Елена Гольянова, Юрий Пронин

Описание: Расследуется серия загадочных убийств. Убийца совершает свои преступления на конечных станциях разных веток метро, оставляя за собой непременный атрибут - цветную ленту. Убийств совершено 7 – по одному на каждый цвет радуги. Убийца и называет себя так – Радуга. И только эксперту по криминальной психологии Полине Ореховой удается понять, что убийца на самом деле не один – их несколько. Но все они лишь исполнители воли искусного манипулятора, который, зная их слабости и темные стороны, умело кукловодит своими подопечными. Когда же сам он выбывает из игры, случайно оказавшись не в том месте не в то время, маску Радуги надевает его любимая женщина, для которой целью жизни становится довести его дело до конца.

Рейтинг и доп. информация:


Видео: 1024x576, (16:9), 25 fps, AVC MPEG-4 (x264), ~ 1600 kbps , 0.109 bit/pixel
Аудио: 48 kHz, AC3, 2/0 (L,R) ch, ~192.00 kbps avg
Общее
Уникальный идентификатор : 172213970812115390031888001129160349995 (0x818F344E813AD652B9C1931C979B992B)
Полное имя : C:\Отражение радуги.(2016).WEB-DLRip.(AVC).Files-x\01.Отражение радуги.(2016).WEB-DLRip.(AVC).by.Серый1779.Files-x.mkv
Формат : Matroska
Версия формата : Version 2
Размер файла : 679 Мбайт
Продолжительность : 52 м. 58 с.
Общий поток : 1793 Кбит/сек
Дата кодирования : UTC 2020-03-10 03:32:56
Программа кодирования : mkvmerge v7.8.0 (''River Man'') 32bit built on Apr 3 2015 12:11:22
Библиотека кодирования : libebml v1.3.1 + libmatroska v1.4.2

Видео
Идентификатор : 1
Формат : AVC
Формат/Информация : Advanced Video Codec
Профиль формата :
Настройки формата : CABAC / 9 Ref Frames
Параметр CABAC формата : Да
Параметр RefFrames формата : 9 кадров
Идентификатор кодека : V_MPEG4/ISO/AVC
Продолжительность : 52 м. 58 с.
Битрейт : 1600 Кбит/сек
Ширина : 1024 пикселя
Высота : 576 пикселей
Соотношение сторон : 16:9
Режим частоты кадров : Постоянный
Частота кадров : 25,000 кадров/сек
Цветовое пространство : YUV
Субдискретизация насыщенности : 4:2:0
Битовая глубина : 8 бит
Тип развёртки : Прогрессивная
Бит/(Пиксели*Кадры) : 0.109
Размер потока : 593 Мбайт (87%)
Библиотека кодирования : x264 core 146 r2538 121396c
Настройки программы : cabac=1 / ref=9 / deblock=1:-2:-1 / analyse=0x3:0x133 / me=umh / subme=9 / psy=1 / psy_rd=1.00:0.15 / mixed_ref=1 / me_range=32 / chroma_me=1 / trellis=2 / 8x8dct=1 / cqm=0 / deadzone=21,11 / fast_pskip=0 / chroma_qp_offset=-3 / threads=18 / lookahead_threads=3 / sliced_threads=0 / nr=0 / decimate=1 / interlaced=0 / bluray_compat=0 / constrained_intra=0 / bframes=9 / b_pyramid=2 / b_adapt=2 / b_bias=0 / direct=1 / weightb=1 / open_gop=0 / weightp=2 / keyint=250 / keyint_min=25 / scenecut=40 / intra_refresh=0 / rc=2pass / mbtree=0 / bitrate=1600 / ratetol=1.0 / qcomp=0.60 / qpmin=0 / qpmax=69 / qpstep=4 / cplxblur=20.0 / qblur=0.5 / ip_ratio=1.40 / pb_ratio=1.30 / aq=2:1.00
Default : Да
Forced : Нет
Цветовой диапазон : Limited
Основные цвета : BT.709
Характеристики трансфера : BT.709
Коэффициенты матрицы : BT.709

Аудио
Идентификатор : 2
Формат : AC-3
Формат/Информация : Audio Coding 3
Коммерческое название : Dolby Digital
Идентификатор кодека : A_AC3
Продолжительность : 52 м. 58 с.
Вид битрейта : Постоянный
Битрейт : 192 Кбит/сек
Каналы : 2 канала
ChannelLayout : L R
Частота : 48,0 КГц
Частота кадров : 31,250 кадров/сек (1536 SPF)
Метод сжатия : С потерями
Размер потока : 72,8 Мбайт (11%)
ServiceKind/String : Complete Main
Default : Да
Forced : Нет









   Похожие торренты   Торрент   Размер 
В этой теме нет новых непрочитанных сообщений. Отражение радуги (1-11 серии из 12) (Тимур Кабулов) [2016, детектив, триллер, WEB-DLRip-AVC]

4 | 2

7.26 ГБ

В этой теме нет новых непрочитанных сообщений. Отражение радуги (1-9 серии из 12) (Тимур Кабулов) [2016, детектив, триллер, WEB-DLRip]

1 | 0

5.88 ГБ

В этой теме нет новых непрочитанных сообщений. Отражение радуги (1-10 серии из 12) (Тимур Кабулов) [2016, детектив, триллер, WEB-DLRip]

4 | 0

6.55 ГБ

В этой теме нет новых непрочитанных сообщений. Отражение радуги (1-12 серии из 12) (Тимур Кабулов) [2016, детектив, триллер, WEB-DLRip]

19 | 3

7.8 ГБ

В этой теме нет новых непрочитанных сообщений. Отражение радуги (1-12 серии из 12) (Тимур Кабулов) [2019, детектив, триллер, SATRip-AVC]

78 | 10

6.85 ГБ

В этой теме нет новых непрочитанных сообщений. Отражение радуги (1-8 серии из 12) (Тимур Кабулов) [2019, детектив, триллер, SATRip]

6 | 0

4.95 ГБ

В этой теме нет новых непрочитанных сообщений. Отражение радуги (1-4 серии из 12) (Тимур Кабулов) [2019, детектив, триллер, SATRip]

1 | 0

2.55 ГБ




Вы не можете начинать темы
Вы не можете отвечать на сообщения
Вы не можете редактировать свои сообщения
Вы не можете удалять свои сообщения
Вы не можете добавлять вложения

Перейти:  
 Вход
ppkBB3cker v.2 © 2008-2014 @ PPK
[ Time : 0.041s | 16 Queries | GZIP : Off ]

cron