img image001 image001 image001 image001 image001 image001 image001 image001 image001 image001 image001 image001 image001 image001 image001

Planets Sun Sun Sun

COVID-19 - Последняя информация о коронавирусе на сайте Минздрава


Статистика раздачи
Автор: Снежана | Размер: 32.64 ГБ | Добавлен: 25 мар 2020
Раздают: 1    Качают: 0
Скачать торрент
Скачать торрент
Описание торрента

СообщениеДобавлено: 25 мар 2020 

Отречение (1-20 серии из 24)

Перевод: Не требуется, cубтитры: отсутствуют
Формат: WEBRip 1080p, MKV, H.264, AC3
Страна: Украина
Режиссер: Сергей Сотниченко, Антон Гойда
Жанр: детектив, мелодрама
Всего серий: 24
Продолжительность: 20 х ~ 00:43:36
Год выпуска: 2020

В ролях: Макар Тихомиров, Наталия Бабенко, Артём Позняк, Вячеслав Бабенков (II), Константин Войтенко, Анастасия Карпенко, Зоя Барановская, Игорь Салимонов, Вита Смачелюк, Акмал Гурезов, Миша Черняков, Роман Жиров, Нина Набока, Геннадий Попенко, Сергей Кияшко, Анастасия Котляр, Юлия Врублевская, Евгений Лесничий, Сергей Филоненко, михаил Дзюба, Анна Грищенко, Роман Поляков, Юрий Щербак, Елена Оларь, Сергей Власенко, Владимир Ющенко, Евгений Бобровский, Артур Ветковский, Олег Венгер, Александр Третьяченко, Екатерина рудая, Оксана Русина, Алексей титаренко, Павел Левицкий, Виктория Ретивова, Руслан Ярошенко, Григорий Сирота, Дмитрий Булкот, Ольга Зиневич, Кристина Дейлик, Владимир Вовк, Алексей Нечай-Кучинский, Марина Мельяновская, Алёна Завгородняя, Дамир Сухов, Татьяна Гайдук, Татьяна Юрикова, Анастасия Котляр, Александра Бехтеева, Вячеслав Евтушенко, Елена Хижная, Ирина Бондаренко, Ольга Щедрова, Вадим Метряев, Юрия Яковлев, Денис Тучков, Анатолий Голубовский

Описание: Новый сотрудник специального отдела уголовного розыска Влад Романенко – молод, талантлив и принципиален. Еще в юности парень разорвал отношения со своим отцом, который был представителем криминального мира. Случилось это после того, как он не смог стать на пути отца и дать ход делу, за что до сих пор мучится угрызением совести. Новый виток этой драмы начинается, когда молодой оперативник влюбляется в свою сотрудницу – девушку Сашу. Тогда же всплывет прошлое семьи Влада, не позволяя ему больше делать вид, что у него нет отца.

Рейтинг и доп. информация:


Видео: 1920x1080, (16:9), 25 fps, AVC MPEG-4 (x264), ~ 5000 kbps , 0.096 bit/pixel
Аудио: 48 kHz, АС3, 2/0 (L,R), ~192.00 kbps avg
Внимание! Раздача ведётся путём добавления новых серий. При каждом добавлении создаётся новый торрент.
Чтобы начать докачку новой серии, пользователям необходимо сделать следующее:
1. Остановить скачивание.
2. Удалить старый торрент у себя из клиента (старые серии удалять не надо).
3. Скачать новый торрент и запустить его у себя в клиенте вместо старого, при этом указать клиенту путь в старую папку куда и должно происходить скачивание новых серий. Ваш клиент при этом должен произвести хеширование (проверку) старой папки и будет докачивать только те серии, которых у вас ещё нет. Старые серии при этом не удаляются, а продолжают раздаваться! Eсли вы уже удалили старые серии, то предотвратить повторную закачку старых серий можно, отжав галочку в соответствующих местах при запуске нового торрента.


Общее
Уникальный идентификатор : 218098672477815073470537611899844948004 (0xA41446C32C713B0A82C024CA517FF024)
Полное имя : C:\Отречение .2020. WEB-DL 1080p. Files-x\01. Отречение .2020. WEB-DL 1080p. Files-x.mkv
Формат : Matroska
Версия формата : Version 2
Размер файла : 1,57 Гбайт
Продолжительность : 43 м. 36 с.
Режим общего битрейта : Постоянный
Общий поток : 5159 Кбит/сек
Дата кодирования : UTC 2020-03-10 20:36:18
Программа кодирования : mkvmerge v7.8.0 (''River Man'') 32bit built on Apr 3 2015 12:11:22
Библиотека кодирования : libebml v1.3.1 + libmatroska v1.4.2

Видео
Идентификатор : 1
Формат : AVC
Формат/Информация : Advanced Video Codec
Профиль формата :
Настройки формата : 2 Ref Frames
Параметр CABAC формата : Нет
Параметр RefFrames формата : 2 кадра
Идентификатор кодека : V_MPEG4/ISO/AVC
Продолжительность : 43 м. 36 с.
Вид битрейта : Постоянный
Битрейт : 5000 Кбит/сек
Ширина : 1920 пикселей
Высота : 1080 пикселей
Соотношение сторон : 16:9
Режим частоты кадров : Постоянный
Частота кадров : 25,000 кадров/сек
Стандарт вещания : PAL
Цветовое пространство : YUV
Субдискретизация насыщенности : 4:2:0
Битовая глубина : 8 бит
Тип развёртки : Прогрессивная
Бит/(Пиксели*Кадры) : 0.096
Размер потока : 1,48 Гбайт (94%)
Default : Да
Forced : Нет
Цветовой диапазон : Limited
Основные цвета : BT.709
Характеристики трансфера : BT.709
Коэффициенты матрицы : BT.709

Аудио
Идентификатор : 2
Формат : AC-3
Формат/Информация : Audio Coding 3
Коммерческое название : Dolby Digital
Идентификатор кодека : A_AC3
Продолжительность : 43 м. 36 с.
Вид битрейта : Постоянный
Битрейт : 192 Кбит/сек
Каналы : 2 канала
ChannelLayout : L R
Частота : 48,0 КГц
Частота кадров : 31,250 кадров/сек (1536 SPF)
Метод сжатия : С потерями
Задержка видео : -40 мс.
Размер потока : 59,9 Мбайт (4%)
ServiceKind/String : Complete Main
Default : Да
Forced : Нет









   Похожие торренты   Торрент   Размер 
В этой теме нет новых непрочитанных сообщений. Отречение (1-18 серии из 24) (Сергей Сотниченко, Антон Гойда) [2020, детектив, мелодрама, WEBRip 1080p]

0 | 0

29.34 ГБ

В этой теме нет новых непрочитанных сообщений. Отречение (1-16 серии из 24) (Сергей Сотниченко, Антон Гойда) [2020, детектив, мелодрама, WEBRip 1080p]

2 | 0

26.07 ГБ

В этой теме нет новых непрочитанных сообщений. Отречение (1-24 серии из 24) (Сергей Сотниченко, Антон Гойда) [2020, детектив, мелодрама, WEBRip]

93 | 12

13.52 ГБ

В этой теме нет новых непрочитанных сообщений. Отречение (1-10 серии из 24) (Сергей Сотниченко, Антон Гойда) [2020, детектив, мелодрама, WEBRip]

10 | 9

5.6 ГБ

В этой теме нет новых непрочитанных сообщений. Отречение (1-16 серии из 24) (Сергей Сотниченко, Антон Гойда) [2020, детектив, мелодрама, WEBRip-AVC]

22 | 1

9.05 ГБ

В этой теме нет новых непрочитанных сообщений. Отречение (1-18 серии из 24) (Сергей Сотниченко, Антон Гойда) [2020, детектив, мелодрама, WEBRip-AVC]

5 | 1

10.19 ГБ

В этой теме нет новых непрочитанных сообщений. Отречение (1-20 серии из 24) (Сергей Сотниченко, Антон Гойда) [2020, детектив, мелодрама, WEBRip-AVC]

8 | 5

11.33 ГБ




Вы не можете начинать темы
Вы не можете отвечать на сообщения
Вы не можете редактировать свои сообщения
Вы не можете удалять свои сообщения
Вы не можете добавлять вложения

Перейти:  
Контактная информация: dv-phone[пёсик]yandex.ru
 Вход
ppkBB3cker v.2 © 2008-2014 @ PPK
[ Time : 0.038s | 16 Queries | GZIP : Off ]

cron