img image001 image001 image001 image001 image001 image001 image001 image001 image001 image001 image001 image001 image001 image001 image001

Planets Sun Sun Sun

COVID-19 - Последняя информация о коронавирусе на сайте Минздрава


Статистика раздачи
Автор: Снежана | Размер: 37.87 ГБ | Добавлен: 31 мар 2020
Раздают: 18    Качают: 23


Скачать торрент
Скачать торрент
Описание торрента

СообщениеДобавлено: 31 мар 2020 

Проспект обороны (1-16 серии из 16)

Перевод: Не требуется, cубтитры: отсутствуют
Формат: HDTV 1080p, MKV, H.264, AC3
Страна: Россия
Режиссер: Сергей Быстрицкий, Сергей Винокуров
Жанр: драма, спорт
Всего серий: 16
Продолжительность: 16 ~ 00:49:48
Год выпуска: 2019

В ролях: Олег Фомин, Виктория Романенко, Макар Запорожский, Роман Курцын, Кирилл Варакса, Елена Руфанова, Кирилл Полухин, Марина Даминева, Сергей Колос, Андрей Феськов, Яков Шамшин, Виталий Олечкин, Эрик Кения, Наталья Высочанская, Филипп Дьячков (II), Сергей Кошонин, Алексей Манцыгин, Евгений Карпов, Александр Яцко, Сослан Фидаров, Антон Момот, Юрий Елагин, Мария Капустинская, Маргарита Аброськина, Александра Большакова, Вадим Волков, Вадим Цаллати, Сергей Кудрявцев, Александр Карпухов, Олег Жилин, Алексей Байдаков, Борис Батуев, Ирина Горячева, Павел Юринов, Роман Грибков, Максим Ханжов, Татьяна Захарова, Сергей Русскин, Алексей Митин, Зарина Мухитдинова, Глеб Степан Каллистов, Алексей Федькин, Дмитрий Бакунин, Людмила Бояринова, Снежана Прудько, Андрей Перович, Сергей Воробьёв (IV), Павел Юринов, Максим Меркулов, Марк Гаврилов, Алексей Удальцов, Елена Лопаткина, Елизавета Бойко, Михаил Сидаш, Антон Пулит, Александра Сыдорук, Наталья Корольская, Владимир крылов, Игорь Головин, Игорь Вуколов, Михаил Соловьёв, Андрей чуманов, Алиса Шитикова

Описание: Денис Астахов на глазах у отца Александра, жены Наташи и брата Валентина ввязывается в драку накануне важного боя за звание чемпиона Санкт-Петербурга. Федерация решает отменить бой. Урегулировать ситуацию может только взятка спортивному чиновнику и вмешательство Сергеича, спонсора боксёра Олега Волка. У Александра, делавшего ставку на спортивную карьеру сына, и с другими взрослыми детьми проблемы: дочь Лиза вопреки запрету отца и брата встречается с бандитом по кличке Бандерас, а сын Валентин болезненно переживает развод и своё положение отца-одиночки.

Рейтинг и доп. информация:


Видео: 1920x1080, (16:9), 25 fps, AVC MPEG-4 (x264), ~ 7050 kbps , 0.136 bit/pixel
Аудио: 48 kHz, AC3, 2/0 (L,R) ch, ~192.00 kbps avg
General
Unique ID : 251075494385419047562330199957084493528 (0xBCE3619C79A1304299651802CEC6D6D8)
Complete name : E:Запись с твProspekt oboroni 2020 HDTV 1080p.R.G.GeneralfilmProspekt oboroni.s01.e01.2020.HDTV 1080p.by.White Smoke.R.G.Generalfilm.mkv
Format : Matroska
Format version : Version 4 / Version 2
File size : 2.52 GiB
Duration : 49 min
Overall bit rate mode : Constant
Overall bit rate : 7 249 kb/s
Movie name : Prospekt oboroni.s01.e01.2020.HDTV 1080p.by.White Smoke.R.G.Generalfilm.mkv
Encoded date : UTC 2020-03-19 10:09:28
Writing application : mkvmerge v6.8.0 (''Theme for Great Cities'') 64bit built on Mar 2 2014 21:34:26
Writing library : libebml v1.3.0 + libmatroska v1.4.1
Cover : Yes
Attachments : cover.jpg

Video
ID : 1
Format : AVC
Format/Info : Advanced Video Codec
Format profile :
Format settings, CABAC : Yes
Format settings, ReFrames : 3 frames
Format settings, GOP : M=3, N=33
Codec ID : V_MPEG4/ISO/AVC
Duration : 49 min
Bit rate mode : Constant
Bit rate : 7 051 kb/s
Width : 1 920 pixels
Height : 1 080 pixels
Display aspect ratio : 16:9
Frame rate mode : Constant
Frame rate : 25.000 FPS
Standard : PAL
Color space : YUV
Chroma subsampling : 4:2:0
Bit depth : 8 bits
Scan type : Progressive
Bits/(Pixel*Frame) : 0.136
Stream size : 2.40 GiB (95%)
Default : Yes
Forced : No
Color range : Limited
Color primaries : BT.709
Transfer characteristics : BT.709
Matrix coefficients : BT.709

Audio
ID : 2
Format : AC-3
Format/Info : Audio Coding 3
Mode extension : CM (complete main)
Format settings, Endianness : Big
Codec ID : A_AC3
Duration : 49 min
Bit rate mode : Constant
Bit rate : 192 kb/s
Channel(s) : 2 channels
Channel positions : Front: L R
Sampling rate : 48.0 kHz
Frame rate : 31.250 FPS (1536 spf)
Compression mode : Lossy
Stream size : 68.4 MiB (3%)
Default : Yes
Forced : No











   Похожие торренты   Торрент   Размер 
В этой теме нет новых непрочитанных сообщений. Проспект обороны (1-4 серии из 16) (Сергей Быстрицкий, Сергей Винокуров) [2019, драма, спорт, HDTV 1080p]

7 | 3

9.64 ГБ

В этой теме нет новых непрочитанных сообщений. Проспект обороны (1-8 серии из 16) (Сергей Быстрицкий, Сергей Винокуров) [2019, драма, спорт, HDTV 1080p]

0 | 0

19.39 ГБ

В этой теме нет новых непрочитанных сообщений. Проспект обороны (1-10 серии из 16) (Сергей Быстрицкий, Сергей Винокуров) [2019, драма, спорт, HDTV 1080p]

1 | 1

24.4 ГБ

В этой теме нет новых непрочитанных сообщений. Проспект обороны (1-16 серии из 16) (Сергей Быстрицкий, Сергей Винокуров) [2019, драма, спорт, WEBRip 1080p, HDTV 1080i]

0 | 0

31.33 ГБ

В этой теме нет новых непрочитанных сообщений. Проспект обороны (1-4 серии из 16) (Сергей Быстрицкий, Сергей Винокуров) [2019, драма, спорт, WEBRip 1080p]

2 | 2

8.55 ГБ

В этой теме нет новых непрочитанных сообщений. Проспект обороны (1-16 серии из 16) (Сергей Быстрицкий, Сергей Винокуров) [2019, драма, спорт, WEBRip 1080p]

0 | 0

34.34 ГБ

В этой теме нет новых непрочитанных сообщений. Проспект обороны (1-8 серии из 16) (Сергей Быстрицкий, Сергей Винокуров) [2019, драма, спорт, WEBRip 1080p]

4 | 2

17.21 ГБ




Вы не можете начинать темы
Вы не можете отвечать на сообщения
Вы не можете редактировать свои сообщения
Вы не можете удалять свои сообщения
Вы не можете добавлять вложения

Перейти:  
Контактная информация: rstracker[пёсик]yandex.ru
 Вход
ppkBB3cker v.2 © 2008-2014 @ PPK
[ Time : 0.031s | 17 Queries | GZIP : Off ]

cron