img image001 image001 image001 image001 image001 image001 image001 image001 image001 image001 image001 image001 image001 image001 image001

Planets Sun Sun Sun

COVID-19 - Последняя информация о коронавирусе на сайте Минздрава


Статистика раздачи
Автор: Снежана | Размер: 5.34 ГБ | Добавлен: 13 май 2020
Раздают: 28    Качают: 24
Скачать торрент
Скачать торрент
Описание торрента

СообщениеДобавлено: 13 май 2020 

Закрытый сезон (1-4 серии из 8)

Перевод: Не требуется, cубтитры: отсутствуют
Формат: WEB-DL 1080p, MKV, H.264, AC3
Страна: Россия
Режиссер: Дарья Полторацкая
Жанр: детектив, мелодрама
Всего серий: 8
Продолжительность: 4 х ~ 00:50:00
Год выпуска: 2020

В ролях: Дарья Урсуляк, Пётр Баранчеев, Кирилл Гребенщиков, Нелли Уварова, Максим Битюков, Марина Доможирова, Андрей Мартынов, Юлия Яблонская, Артём Осипов, Зураб Миминошвили, Тимур Базинский, Сергей Козик, Елена Оболенская-Белевич, Дарья Шевчук, Артем Мельничук, Дмитрий Янышевский, Олег Руденко-Травин, Михаил Липкин, Юлия Слепнева, Антон Навроцкий, Валерий Александрин, Надежда Трицинская, Жанна Величко, Виктор Крючков, Игорь Цветков, Роман Рыбин, Алексей Беляков (II), Светлана Энкина-Кравченко, Евгений Чернорай, Артём Божутин, Юрий Пимкин, Таня Мартынова, Елена Ларина-Одинцова, Владимир Малинин (II), Елена Свок, Ирина Чипиженко, Надежда Шумилова, Пётр Котров, Кирилл Ильин, Денис Свистун, Галина Бессинная, Лидия Суханова, Игорь Петров, Максим Малый, Константин Остапенко, Евгений Солдатов

Описание: Небольшой южный городок на море. Уютные кафе на набережной, домашнее вино «на розлив», платная рыбалка на катерах. Есть в городе и свои «знаковые фигуры»: это Глеб Валентинович – полулегальный бизнесмен, владелец ресторанчиков и киосков, и Сергей Воронец – начальник отделения полиции, с тех же заведений имеющий «процент» за спокойную жизнь. Городок живёт ленивой и приятной жизнью до тех пор, пока не происходят несколько странных смертей – вчера еще здоровые люди умирают за пару часов. В город вызывают эпидемиолога из столицы. Глеб с «командой» пытаются его перехватить и подкупить: совсем не в их интересах, чтобы закрыли сезон. Но Евгений Левин оказывается принципиальным. Впрочем, своей преданностью делу и готовностью влезть в любую драку он вскоре заставит Глеба себя уважать. Глеб не знает одного: Женя – тот самый мужчина, из-за разрыва с которым когда-то уехала из Москвы его молодая жена.
«Эта эпидемия не первая и не последняя»

Рейтинг и доп. информация:


Видео: 1920x1080, (16:9), 25 fps, AVC MPEG-4 (x264), ~ 3400 kbps , 0.066 bit/pixel
Аудио: 48 kHz, АС3, 2/0 (L,R), ~192.00 kbps avg
Внимание! Раздача ведётся путём добавления новых серий. При каждом добавлении создаётся новый торрент.
Чтобы начать докачку новой серии, пользователям необходимо сделать следующее:
1. Остановить скачивание.
2. Удалить старый торрент у себя из клиента (старые серии удалять не надо).
3. Скачать новый торрент и запустить его у себя в клиенте вместо старого, при этом указать клиенту путь в старую папку куда и должно происходить скачивание новых серий. Ваш клиент при этом должен произвести хеширование (проверку) старой папки и будет докачивать только те серии, которых у вас ещё нет. Старые серии при этом не удаляются, а продолжают раздаваться! Eсли вы уже удалили старые серии, то предотвратить повторную закачку старых серий можно, отжав галочку в соответствующих местах при запуске нового торрента.


Общее
Уникальный идентификатор : 204010050877682546453561719836194254143 (0x997AE8168D87CA3DBB6F95BD3ADA2D3F)
Полное имя : C:\Zakrytyy.sezon.2020.WEB-DL.(1080p).Getty\Zakrytyy.sezon.e01.2020.WEB-DL.(1080p).Getty.mkv
Формат : Matroska
Версия формата : Version 2
Размер файла : 1,33 Гбайт
Продолжительность : 51 м. 45 с.
Режим общего битрейта : Переменный
Общий поток : 3 684 Кбит/сек
Дата кодирования : UTC 2020-04-28 09:04:49
Программа кодирования : mkvmerge v4.0.0 (''The Stars were mine'') сборка от Jun 6 2010 16:18:42
Библиотека кодирования : libebml v1.0.0 + libmatroska v1.0.0

Видео
Идентификатор : 1
Формат : AVC
Формат/Информация : Advanced Video Codec
Профиль формата :
Настройки формата : CABAC / 5 Ref Frames
Параметр CABAC формата : Да
Параметр RefFrames формата : 5 кадров
Идентификатор кодека : V_MPEG4/ISO/AVC
Продолжительность : 51 м. 45 с.
Вид битрейта : Переменный
Битрейт : 3 418 Кбит/сек
Максимальный битрейт : 40,0 Мбит/сек
Ширина : 1 920 пикселей
Высота : 1 080 пикселей
Соотношение сторон : 16:9
Режим частоты кадров : Постоянный
Частота кадров : 25,000 кадров/сек
Цветовое пространство : YUV
Субдискретизация насыщенности : 4:2:0
Битовая глубина : 8 бит
Тип развёртки : Прогрессивная
Бит/(Пиксели*Кадры) : 0.066
Размер потока : 1,24 Гбайт (93%)
Язык : Russian
Default : Да
Forced : Нет
Цветовой диапазон : Limited
Основные цвета : BT.709
Коэффициенты матрицы : BT.709
Duration_Source : General_Duration

Аудио
Идентификатор : 2
Формат : AC-3
Формат/Информация : Audio Coding 3
Коммерческое название : Dolby Digital
Идентификатор кодека : A_AC3
Продолжительность : 51 м. 45 с.
Вид битрейта : Постоянный
Битрейт : 192 Кбит/сек
Каналы : 2 канала
Channel layout : L R
Частота : 48,0 КГц
Частота кадров : 31,250 кадров/сек (1536 SPF)
Метод сжатия : С потерями
Размер потока : 71,1 Мбайт (5%)
Язык : Russian
Service kind : Complete Main
Default : Да
Forced : Нет
Duration_Source : General_Duration









   Похожие торренты   Торрент   Размер 
В этой теме нет новых непрочитанных сообщений. Закрытый сезон (1-3 серии из 8) (Дарья Полторацкая) [2020, детектив, мелодрама, WEB-DL 1080p]

19 | 11

4.01 ГБ

В этой теме нет новых непрочитанных сообщений. Закрытый сезон (1-7 серии из 8) (Дарья Полторацкая) [2020, детектив, мелодрама, WEB-DL 1080p]

31 | 64

9.35 ГБ

В этой теме нет новых непрочитанных сообщений. Закрытый сезон (1-2 серии из 8) (Дарья Полторацкая) [2020, детектив, мелодрама, WEB-DL 1080p]

0 | 0

2.67 ГБ

В этой теме нет новых непрочитанных сообщений. Закрытый сезон (1-8 серии из 8) (Дарья Полторацкая) [2020, детектив, мелодрама, WEB-DL 1080p]

17 | 12

10.71 ГБ

В этой теме нет новых непрочитанных сообщений. Закрытый сезон (1-6 серии из 8) (Дарья Полторацкая) [2020, детектив, мелодрама, WEB-DL 1080p]

17 | 27

8.01 ГБ

В этой теме нет новых непрочитанных сообщений. Закрытый сезон (1-5 серии из 8) (Дарья Полторацкая) [2020, детектив, мелодрама, WEB-DL 1080p]

11 | 31

6.68 ГБ

В этой теме нет новых непрочитанных сообщений. Закрытый сезон (1-5 серии из 8) (Дарья Полторацкая) [2020, детектив, мелодрама, WEB-DL 720p]

7 | 8

5.77 ГБ




Вы не можете начинать темы
Вы не можете отвечать на сообщения
Вы не можете редактировать свои сообщения
Вы не можете удалять свои сообщения
Вы не можете добавлять вложения

Перейти:  
Контактная информация: rstracker[пёсик]yandex.ru
 Вход
ppkBB3cker v.2 © 2008-2014 @ PPK
[ Time : 0.052s | 16 Queries | GZIP : Off ]

cron