img image001 image001 image001 image001 image001 image001 image001 image001 image001 image001 image001 image001 image001 image001 image001

Planets Sun Sun Sun

COVID-19 - Последняя информация о коронавирусе на сайте Минздрава


Статистика раздачи
Автор: Снежана | Размер: 5.31 ГБ | Добавлен: 15 май 2020
Раздают: 3    Качают: 2
Скачать торрент
Скачать торрент
Описание торрента

СообщениеДобавлено: 15 май 2020 

Катя и Блэк (1-4 серии из 8)

Перевод: Не требуется, cубтитры: отсутствуют
Формат: HDTVRip 720p, MKV, H.264, AC3
Страна: Россия
Режиссер: Гузэль Киреева
Жанр: детектив
Всего серий: 8
Продолжительность: 4 х ~ 00:50:00
Год выпуска: 2018

В ролях: Юлия Мельникова, Дмитрий Ратомский, Сергей Громов, Никита Абдулов, Марина Дровосекова, Армен Арушанян, Борис Щербаков, Маргарита Бугаева, Константин Милованов, Анатолий Голуб, Михаил Евланов, Владимир Кошевой, Владимир Юматов, Степан Абрамов, Александр Бобров, Александр Гунькин, Александр Красовский, Алёна Новицкая, Ян Хуснояров, Дэвид Аласания, Михаил Владимиров Дэвид Аласания

Описание: Капитан полиции Екатерина Шатрова, рискуя жизнью, помогает в поимке серийного убийцы Котова. Однако у преступника на свободе остался жестокий подельник, который начинает выслеживать Шатрову, чтобы отомстить. К счастью, Катю переводят в областной центр, где она возглавляет группу оперативников, состоящую из брутального капитана Андрея Веселова, интеллектуала Василия Савчука и эксперта-криминалиста Арины Соболь. Но, главное, что волею случая в жизни Кати появляется умный и самоотверженный пес по кличке Блэк. Обаятельный золотистый ретривер начинает помогать своей новой хозяйке в расследованиях. Вместе они раскрывают множество сложных дел, и каждый раз Блэк оказывается «на высоте», находя важные улики, выслеживая насильников, похитителей и убийц, а также охраняя Катину дочь Лизу… Но окажется ли Блэк рядом с Катей, когда ей самой понадобится помощь…

Рейтинг и доп. информация:


Видео: 1280х720, (16:9), 25 fps, AVC MPEG-4 (x264), ~ 3500 kbps , 0.152 bit/pixel
Аудио: 48 kHz, AC3, 2 ch, ~192.00 kbps avg
Внимание! Раздача ведётся путём добавления новых серий. При каждом добавлении создаётся новый торрент.
Чтобы начать докачку новой серии, пользователям необходимо сделать следующее:
1. Остановить скачивание.
2. Удалить старый торрент у себя из клиента (старые серии удалять не надо).
3. Скачать новый торрент и запустить его у себя в клиенте вместо старого, при этом указать клиенту путь в старую папку куда и должно происходить скачивание новых серий. Ваш клиент при этом должен произвести хеширование (проверку) старой папки и будет докачивать только те серии, которых у вас ещё нет. Старые серии при этом не удаляются, а продолжают раздаваться! Eсли вы уже удалили старые серии, то предотвратить повторную закачку старых серий можно, отжав галочку в соответствующих местах при запуске нового торрента.


Общее
Уникальный идентификатор : 176124713167534030517565838295437303961 (0x848062CA93FF19379C00CD9D198E6099)
Полное имя : D:Katja i Bljek.HDTVRip.(720p).GeneralFilm1.Katja i Bljek.HDTVRip.(720p).GeneralFilm.mkv
Формат : Matroska
Версия формата : Version 2
Размер файла : 1,32 Гбайт
Продолжительность : 51 м.
Общий поток : 3694 Кбит/сек
Дата кодирования : UTC 2020-05-11 16:51:15
Программа кодирования : mkvmerge v7.8.0 (''River Man'') 32bit built on Apr 3 2015 12:11:22
Библиотека кодирования : libebml v1.3.1 + libmatroska v1.4.2

Видео
Идентификатор : 1
Формат : AVC
Формат/Информация : Advanced Video Codec
Профиль формата :
Параметр CABAC формата : Да
Параметр ReFrames формата : 9 кадров
Идентификатор кодека : V_MPEG4/ISO/AVC
Продолжительность : 51 м.
Битрейт : 3500 Кбит/сек
Ширина : 1280 пикселей
Высота : 720 пикселей
Соотношение сторон : 16:9
Режим частоты кадров : Постоянный
Частота кадров : 25,000 кадров/сек
Цветовое пространство : YUV
Субдискретизация насыщенности : 4:2:0
Битовая глубина : 8 бит
Тип развёртки : Прогрессивная
Бит/(Пиксели*Кадры) : 0.152
Размер потока : 1,23 Гбайт (93%)
Библиотека кодирования : x264 core 146 r2538 121396c
Настройки программы : cabac=1 / ref=9 / deblock=1:-2:-1 / analyse=0x3:0x133 / me=umh / subme=9 / psy=1 / psy_rd=1.00:0.15 / mixed_ref=1 / me_range=32 / chroma_me=1 / trellis=2 / 8x8dct=1 / cqm=0 / deadzone=21,11 / fast_pskip=0 / chroma_qp_offset=-3 / threads=18 / lookahead_threads=3 / sliced_threads=0 / nr=0 / decimate=1 / interlaced=0 / bluray_compat=0 / constrained_intra=0 / bframes=9 / b_pyramid=2 / b_adapt=2 / b_bias=0 / direct=1 / weightb=1 / open_gop=0 / weightp=2 / keyint=250 / keyint_min=25 / scenecut=40 / intra_refresh=0 / rc=2pass / mbtree=0 / bitrate=3500 / ratetol=1.0 / qcomp=0.60 / qpmin=0 / qpmax=69 / qpstep=4 / cplxblur=20.0 / qblur=0.5 / ip_ratio=1.40 / pb_ratio=1.30 / aq=2:1.00
Default : Да
Forced : Нет
Основные цвета : BT.709
Характеристики трансфера : BT.709
Коэффициенты матрицы : BT.709

Аудио
Идентификатор : 2
Формат : AC-3
Формат/Информация : Audio Coding 3
Расширение режима : CM (complete main)
Параметр Endianness формата : Big
Идентификатор кодека : A_AC3
Продолжительность : 51 м.
Вид битрейта : Постоянный
Битрейт : 192 Кбит/сек
Каналы : 2 канала
Расположение каналов : Front: L R
Частота : 48,0 КГц
Битовая глубина : 16 бит
Метод сжатия : С потерями
Размер потока : 70,3 Мбайт (5%)
Default : Да
Forced : Нет









   Похожие торренты   Торрент   Размер 
В этой теме нет новых непрочитанных сообщений. Катя и Блэк (1-6 серии из 8) (Гузэль Киреева) [2018, детектив, HDTVRip 720p]

0 | 0

7.96 ГБ

В этой теме нет новых непрочитанных сообщений. Катя и Блэк (1-2 серии из 8) (Гузэль Киреева) [2018, детектив, HDTVRip 720p]

0 | 5

2.65 ГБ

В этой теме нет новых непрочитанных сообщений. Катя и Блэк (1-5 серии из 8) (Гузэль Киреева) [2018, детектив, HDTVRip 720p]

7 | 5

6.63 ГБ

В этой теме нет новых непрочитанных сообщений. Катя и Блэк (1-8 серии из 8) (Гузэль Киреева) [2018, детектив, HDTVRip 720p]

58 | 26

10.62 ГБ

В этой теме нет новых непрочитанных сообщений. Катя и Блэк (1-5 серии из 8) (Гузэль Киреева) [2018, детектив, HDTVRip]

25 | 18

3.24 ГБ

В этой теме нет новых непрочитанных сообщений. Катя и Блэк (1-7 серии из 8) (Гузэль Киреева) [2018, детектив, HDTVRip]

29 | 32

4.54 ГБ

В этой теме нет новых непрочитанных сообщений. Катя и Блэк (1-8 серии из 8) (Гузэль Киреева) [2018, детектив, HDTVRip]

197 | 83

5.18 ГБ




Вы не можете начинать темы
Вы не можете отвечать на сообщения
Вы не можете редактировать свои сообщения
Вы не можете удалять свои сообщения
Вы не можете добавлять вложения

Перейти:  
Контактная информация: rstracker[пёсик]yandex.ru
 Вход
ppkBB3cker v.2 © 2008-2014 @ PPK
[ Time : 0.023s | 16 Queries | GZIP : Off ]

cron