img image001 image001 image001 image001 image001 image001 image001 image001 image001 image001 image001 image001 image001 image001 image001

Planets Sun Sun Sun

COVID-19 - Последняя информация о коронавирусе на сайте Минздрава


Статистика раздачи
Автор: Снежана | Размер: 17.7 ГБ | Добавлен: 20 май 2020
Раздают: 7    Качают: 6


Скачать торрент
Скачать торрент
Описание торрента

СообщениеДобавлено: 20 май 2020 

Последний министр / Министерство (1-15 серии из 16)

Перевод: Не требуется, cубтитры: отсутствуют
Формат: WEBRip 1080p, MKV, H.264, AC3
Страна: Россия
Режиссер: Роман Волобуев
Жанр: комедия
Всего серий: 16
Продолжительность: 1 х~ 00:46:00, 13 х ~ 00:27:00
Год выпуска: 2020

В ролях: Ян Цапник, Ольга Сутулова, Софья Лебедева, Сергей Епишев, Алексей Золотовицкий, Дарья Носик, Екатерина Носик, Анна Шепелева, Эльвира Кекеева, Сергей Стёпин, Нелли Уварова, Полина Федина, Борис Невзоров, Фёдор Лавров, Александр Ильин, Ольга Дибцева, Александр Голубков, Екатерина Горина, Константин Богомолов, Фархад Гусейнов, Никита Абдулов, Константин Мурзенко, Антон Багмет, Анна Чиповская, Валерия Дмитриева, Дмитрий Ендальцев, Алиса Хазанова, Вадим Лобанов, Андрей Мерзликин, Нана Муштакова, Юрий Цурило

Описание: Когда министром перспективного планирования назначают деятельного неудачника, никто и представить не мог, к чему это приведёт. Оказывается, новый министр действительно хочет изменить жизнь людей к лучшему и для этого вместе с командой активно продвигает собственные инициативы. Правда, инициативы эти не всегда разумны, а результат – крайне непредсказуем.
«Страну удивлять будем»

Рейтинг и доп. информация:


Видео: 1920х804 (2,40:1), 25 fps, AVC MPEG-4 (x264), ~ 5900 kbps , 0.155 bit/pixel
Аудио #1: 48 kHz, AC3, 2 ch, ~192.00 kbps avg [с цензурой]
Аудио #2: 48 kHz, AC3, 2 ch, ~192.00 kbps avg [без цензуры]
Внимание! Раздача ведётся путём добавления новых серий. При каждом добавлении создаётся новый торрент.
Чтобы начать докачку новой серии, пользователям необходимо сделать следующее:
1. Остановить скачивание.
2. Удалить старый торрент у себя из клиента (старые серии удалять не надо).
3. Скачать новый торрент и запустить его у себя в клиенте вместо старого, при этом указать клиенту путь в старую папку куда и должно происходить скачивание новых серий. Ваш клиент при этом должен произвести хеширование (проверку) старой папки и будет докачивать только те серии, которых у вас ещё нет. Старые серии при этом не удаляются, а продолжают раздаваться! Eсли вы уже удалили старые серии, то предотвратить повторную закачку старых серий можно, отжав галочку в соответствующих местах при запуске нового торрента.


Версия 18+. ВНИМАНИЕ! Присутствует ненормативная лексика.

В релизе две аудио дорожки:
аудио 1 с цензурой

аудио 2 без цензуры
По умолчанию дорожка аудио поставлена с цензурой

Общее
Уникальный идентификатор : 217072996173128658027676019400847110235 (0xA34EBD0429A9987CB82BD2535F8FB05B)
Полное имя : C:\Posledniy.ministr.S01.2020.WEBRip.(1080p).ExKinoRay\Posledniy.ministr.S01.E01-02.2020.WEBRip.(1080p).ExKinoRay.mkv
Формат : Matroska
Версия формата : Version 4
Размер файла : 2,06 Гбайт
Продолжительность : 46 м. 8 с.
Общий поток : 6 377 Кбит/сек
Дата кодирования : UTC 2020-04-03 23:44:35
Программа кодирования : mkvmerge v6.9.1 (''Blue Panther'') 64bit built on Apr 18 2014 18:23:38
Библиотека кодирования : libebml v1.3.0 + libmatroska v1.4.1

Видео
Идентификатор : 1
Формат : AVC
Формат/Информация : Advanced Video Codec
Профиль формата :
Настройки формата : CABAC / 4 Ref Frames
Параметр CABAC формата : Да
Параметр RefFrames формата : 4 кадра
Идентификатор кодека : V_MPEG4/ISO/AVC
Битрейт : 5 900 Кбит/сек
Ширина : 1 920 пикселей
Высота : 804 пикселя
Соотношение сторон : 2,40:1
Режим частоты кадров : Переменный
Частота кадров в оригинале : 25,000 кадров/сек
Цветовое пространство : YUV
Субдискретизация насыщенности : 4:2:0
Битовая глубина : 8 бит
Тип развёртки : Прогрессивная
Default : Да
Forced : Нет
Цветовой диапазон : Limited
Основные цвета : BT.709
Характеристики трансфера : BT.709
Коэффициенты матрицы : BT.709

Аудио #1
Идентификатор : 2
Формат : AC-3
Формат/Информация : Audio Coding 3
Коммерческое название : Dolby Digital
Идентификатор кодека : A_AC3
Продолжительность : 46 м. 8 с.
Вид битрейта : Постоянный
Битрейт : 192 Кбит/сек
Каналы : 2 канала
Channel layout : L R
Частота : 48,0 КГц
Частота кадров : 31,250 кадров/сек (1536 SPF)
Метод сжатия : С потерями
Размер потока : 63,4 Мбайт (3%)
Заголовок : с цензурой
Язык : Russian
Service kind : Complete Main
Default : Да
Forced : Да
Duration_Source : General_Duration

Аудио #2
Идентификатор : 3
Формат : AC-3
Формат/Информация : Audio Coding 3
Коммерческое название : Dolby Digital
Идентификатор кодека : A_AC3
Продолжительность : 46 м. 8 с.
Вид битрейта : Постоянный
Битрейт : 192 Кбит/сек
Каналы : 2 канала
Channel layout : L R
Частота : 48,0 КГц
Частота кадров : 31,250 кадров/сек (1536 SPF)
Метод сжатия : С потерями
Размер потока : 63,4 Мбайт (3%)
Заголовок : Без цензуры
Язык : Russian
Service kind : Complete Main
Default : Нет
Forced : Нет
Duration_Source : General_Duration









   Похожие торренты   Торрент   Размер 
В этой теме нет новых непрочитанных сообщений. Последний министр / Министерство (1-11 серии из 16) (Роман Волобуев) [2020, комедия, WEBRip 1080p]

0 | 0

12.95 ГБ

В этой теме нет новых непрочитанных сообщений. Последний министр / Министерство (1-12 серии из 16) (Роман Волобуев) [2020, комедия, WEBRip 1080p]

0 | 0

14.03 ГБ

В этой теме нет новых непрочитанных сообщений. Последний министр / Министерство (1-2 серии из 16) (Роман Волобуев) [2020, комедия, WEBRip 1080p]

18 | 0

1.99 ГБ

В этой теме нет новых непрочитанных сообщений. Последний министр / Министерство (1-9 серии из 16) (Роман Волобуев) [2020, комедия, WEBRip 1080p]

0 | 0

10.33 ГБ

В этой теме нет новых непрочитанных сообщений. Последний министр / Министерство (1-16 серии из 16) (Роман Волобуев) [2020, комедия, WEBRip 1080p]

0 | 0

19.01 ГБ

В этой теме нет новых непрочитанных сообщений. Последний министр / Министерство (1-10 серии из 16) (Роман Волобуев) [2020, комедия, WEBRip 1080p]

58 | 83

11.74 ГБ

В этой теме нет новых непрочитанных сообщений. Последний министр / Министерство (1-13 серии из 16) (Роман Волобуев) [2020, комедия, WEBRip 1080p]

0 | 0

15.26 ГБ




Вы не можете начинать темы
Вы не можете отвечать на сообщения
Вы не можете редактировать свои сообщения
Вы не можете удалять свои сообщения
Вы не можете добавлять вложения

Перейти:  
Контактная информация: rstracker[пёсик]yandex.ru
 Вход
ppkBB3cker v.2 © 2008-2014 @ PPK
[ Time : 0.022s | 16 Queries | GZIP : Off ]

cron