img image001 image001 image001 image001 image001 image001 image001 image001 image001 image001 image001 image001 image001 image001 image001

Planets Sun Sun Sun

COVID-19 - Последняя информация о коронавирусе на сайте Минздрава


Статистика раздачи
Автор: Снежана | Размер: 5.77 ГБ | Добавлен: 20 май 2020
Раздают: 7    Качают: 8


Скачать торрент
Скачать торрент
Описание торрента

СообщениеДобавлено: 20 май 2020 

Закрытый сезон (1-5 серии из 8)

Перевод: Не требуется, cубтитры: отсутствуют
Формат: WEB-DL 720p, MKV, H.264, AC3
Страна: Россия
Режиссер: Дарья Полторацкая
Жанр: детектив, мелодрама
Всего серий: 8
Продолжительность: 5 х ~ 00:50:00
Год выпуска: 2020

В ролях: Дарья Урсуляк, Пётр Баранчеев, Кирилл Гребенщиков, Нелли Уварова, Максим Битюков, Марина Доможирова, Андрей Мартынов, Юлия Яблонская, Артём Осипов, Зураб Миминошвили, Тимур Базинский, Сергей Козик, Елена Оболенская-Белевич, Дарья Шевчук, Артем Мельничук, Дмитрий Янышевский, Олег Руденко-Травин, Михаил Липкин, Юлия Слепнева, Антон Навроцкий, Валерий Александрин, Надежда Трицинская, Жанна Величко, Виктор Крючков, Игорь Цветков, Роман Рыбин, Алексей Беляков (II), Светлана Энкина-Кравченко, Евгений Чернорай, Артём Божутин, Юрий Пимкин, Таня Мартынова, Елена Ларина-Одинцова, Владимир Малинин (II), Елена Свок, Ирина Чипиженко, Надежда Шумилова, Пётр Котров, Кирилл Ильин, Денис Свистун, Галина Бессинная, Лидия Суханова, Игорь Петров, Максим Малый, Константин Остапенко, Евгений Солдатов

Описание: Небольшой южный городок на море. Уютные кафе на набережной, домашнее вино «на розлив», платная рыбалка на катерах. Есть в городе и свои «знаковые фигуры»: это Глеб Валентинович – полулегальный бизнесмен, владелец ресторанчиков и киосков, и Сергей Воронец – начальник отделения полиции, с тех же заведений имеющий «процент» за спокойную жизнь. Городок живёт ленивой и приятной жизнью до тех пор, пока не происходят несколько странных смертей – вчера еще здоровые люди умирают за пару часов. В город вызывают эпидемиолога из столицы. Глеб с «командой» пытаются его перехватить и подкупить: совсем не в их интересах, чтобы закрыли сезон. Но Евгений Левин оказывается принципиальным. Впрочем, своей преданностью делу и готовностью влезть в любую драку он вскоре заставит Глеба себя уважать. Глеб не знает одного: Женя – тот самый мужчина, из-за разрыва с которым когда-то уехала из Москвы его молодая жена.
«Эта эпидемия не первая и не последняя»

Рейтинг и доп. информация:


Видео: 1280х720, (16:9), 25 fps, AVC MPEG-4 (x264), ~ 3000 kbps , 0.130 bit/pixel
Аудио: 48 kHz, АС3, 2/0 (L,R), ~192.00 kbps avg
Внимание! Раздача ведётся путём добавления новых серий. При каждом добавлении создаётся новый торрент.
Чтобы начать докачку новой серии, пользователям необходимо сделать следующее:
1. Остановить скачивание.
2. Удалить старый торрент у себя из клиента (старые серии удалять не надо).
3. Скачать новый торрент и запустить его у себя в клиенте вместо старого, при этом указать клиенту путь в старую папку куда и должно происходить скачивание новых серий. Ваш клиент при этом должен произвести хеширование (проверку) старой папки и будет докачивать только те серии, которых у вас ещё нет. Старые серии при этом не удаляются, а продолжают раздаваться! Eсли вы уже удалили старые серии, то предотвратить повторную закачку старых серий можно, отжав галочку в соответствующих местах при запуске нового торрента.


Общее
Уникальный идентификатор : 188706467289058449773000768843353504636 (0x8DF78B29B5113F8BAD934605548D3B7C)
Полное имя : C:\Zakrytyy.sezon.e01.2020.WEB-DL.(720p).Getty.mkv
Формат : Matroska
Версия формата : Version 4
Размер файла : 1,15 Гбайт
Продолжительность : 51 м. 45 с.
Общий поток : 3 182 Кбит/сек
Название фильма : Zakrytyy.sezon.e01.2020.WEB-DL.(720p).Getty
Дата кодирования : UTC 2020-04-28 09:22:17
Программа кодирования : mkvmerge v7.8.0 (''River Man'') 32bit built on Mar 27 2015 16:18:02
Библиотека кодирования : libebml v1.3.1 + libmatroska v1.4.2

Видео
Идентификатор : 1
Формат : AVC
Формат/Информация : Advanced Video Codec
Профиль формата :
Настройки формата : CABAC / 5 Ref Frames
Параметр CABAC формата : Да
Параметр RefFrames формата : 5 кадров
Идентификатор кодека : V_MPEG4/ISO/AVC
Продолжительность : 51 м. 45 с.
Битрейт : 3 000 Кбит/сек
Ширина : 1 280 пикселей
Высота : 720 пикселей
Соотношение сторон : 16:9
Режим частоты кадров : Постоянный
Частота кадров : 25,000 кадров/сек
Цветовое пространство : YUV
Субдискретизация насыщенности : 4:2:0
Битовая глубина : 8 бит
Тип развёртки : Прогрессивная
Бит/(Пиксели*Кадры) : 0.130
Размер потока : 1,08 Гбайт (94%)
Default : Да
Forced : Нет
Цветовой диапазон : Limited
Основные цвета : BT.709
Коэффициенты матрицы : BT.709

Аудио
Идентификатор : 2
Формат : AC-3
Формат/Информация : Audio Coding 3
Коммерческое название : Dolby Digital
Идентификатор кодека : A_AC3
Продолжительность : 51 м. 45 с.
Вид битрейта : Постоянный
Битрейт : 192 Кбит/сек
Каналы : 2 канала
Channel layout : L R
Частота : 48,0 КГц
Частота кадров : 31,250 кадров/сек (1536 SPF)
Метод сжатия : С потерями
Размер потока : 71,1 Мбайт (6%)
Service kind : Complete Main
Default : Да
Forced : Нет









   Похожие торренты   Торрент   Размер 
В этой теме нет новых непрочитанных сообщений. Закрытый сезон (1-4 серии из 8) (Дарья Полторацкая) [2020, детектив, мелодрама, WEB-DL 720p]

0 | 0

4.61 ГБ

В этой теме нет новых непрочитанных сообщений. Закрытый сезон (1-6 серии из 8) (Дарья Полторацкая) [2020, детектив, мелодрама, WEB-DL 720p]

9 | 16

6.92 ГБ

В этой теме нет новых непрочитанных сообщений. Закрытый сезон (1-2 серии из 8) (Дарья Полторацкая) [2020, детектив, мелодрама, WEB-DL 720p]

17 | 1

2.31 ГБ

В этой теме нет новых непрочитанных сообщений. Закрытый сезон (1-3 серии из 8) (Дарья Полторацкая) [2020, детектив, мелодрама, WEB-DL 720p]

0 | 0

3.46 ГБ

В этой теме нет новых непрочитанных сообщений. Закрытый сезон (1-2 серии из 8) (Дарья Полторацкая) [2020, детектив, мелодрама, WEB-DLRip]

83 | 115

1.17 ГБ

В этой теме нет новых непрочитанных сообщений. Закрытый сезон (1-5 серии из 8) (Дарья Полторацкая) [2020, детектив, мелодрама, WEB-DL 1080p]

11 | 31

6.68 ГБ

В этой теме нет новых непрочитанных сообщений. Закрытый сезон (1-4 серии из 8) (Дарья Полторацкая) [2020, детектив, мелодрама, WEB-DL 1080p]

28 | 24

5.34 ГБ




Вы не можете начинать темы
Вы не можете отвечать на сообщения
Вы не можете редактировать свои сообщения
Вы не можете удалять свои сообщения
Вы не можете добавлять вложения

Перейти:  
Контактная информация: rstracker[пёсик]yandex.ru
 Вход
ppkBB3cker v.2 © 2008-2014 @ PPK
[ Time : 0.027s | 18 Queries | GZIP : Off ]

cron