img image001 image001 image001 image001 image001 image001 image001 image001 image001 image001 image001 image001 image001 image001 image001

Planets Sun Sun Sun

COVID-19 - Последняя информация о коронавирусе на сайте Минздрава


Статистика раздачи
Автор: Снежана | Размер: 4.73 ГБ | Добавлен: 20 май 2020
Раздают: 0    Качают: 0


Скачать торрент
Скачать торрент
Описание торрента

СообщениеДобавлено: 20 май 2020 

Катя и Блэк (1-6 серии из 8)

Перевод: Не требуется, cубтитры: отсутствуют
Формат: HDTVRip-AVC, MKV, H.264, AC3
Страна: Россия
Режиссер: Гузэль Киреева
Жанр: детектив
Всего серий: 8
Продолжительность: 6 х ~ 00:50:00
Год выпуска: 2018

В ролях: Юлия Мельникова, Дмитрий Ратомский, Сергей Громов, Никита Абдулов, Марина Дровосекова, Армен Арушанян, Борис Щербаков, Маргарита Бугаева, Константин Милованов, Анатолий Голуб, Михаил Евланов, Владимир Кошевой, Владимир Юматов, Степан Абрамов, Александр Бобров, Александр Гунькин, Александр Красовский, Алёна Новицкая, Ян Хуснояров, Дэвид Аласания

Описание: Капитан полиции Екатерина Шатрова, рискуя жизнью, помогает в поимке серийного убийцы Котова. Однако у преступника на свободе остался жестокий подельник, который начинает выслеживать Шатрову, чтобы отомстить. К счастью, Катю переводят в областной центр, где она возглавляет группу оперативников, состоящую из брутального капитана Андрея Веселова, интеллектуала Василия Савчука и эксперта-криминалиста Арины Соболь. Но, главное, что волею случая в жизни Кати появляется умный и самоотверженный пес по кличке Блэк. Обаятельный золотистый ретривер начинает помогать своей новой хозяйке в расследованиях. Вместе они раскрывают множество сложных дел, и каждый раз Блэк оказывается «на высоте», находя важные улики, выслеживая насильников, похитителей и убийц, а также охраняя Катину дочь Лизу… Но окажется ли Блэк рядом с Катей, когда ей самой понадобится помощь…

Рейтинг и доп. информация:


Видео: 1024x432, (2,40:1), 25 fps, AVC MPEG-4 (x264), ~ 2000 kbps , 0.181 bit/pixel
Аудио: 48 kHz, AC3, 2 ch, ~192.00 kbps avg
Внимание! Раздача ведётся путём добавления новых серий. При каждом добавлении создаётся новый торрент.
Чтобы начать докачку новой серии, пользователям необходимо сделать следующее:
1. Остановить скачивание.
2. Удалить старый торрент у себя из клиента (старые серии удалять не надо).
3. Скачать новый торрент и запустить его у себя в клиенте вместо старого, при этом указать клиенту путь в старую папку куда и должно происходить скачивание новых серий. Ваш клиент при этом должен произвести хеширование (проверку) старой папки и будет докачивать только те серии, которых у вас ещё нет. Старые серии при этом не удаляются, а продолжают раздаваться! Eсли вы уже удалили старые серии, то предотвратить повторную закачку старых серий можно, отжав галочку в соответствующих местах при запуске нового торрента.


Общее
Уникальный идентификатор : 220042528551165026434885192392210135557 (0xA58AA64428EDC48FA5A8A53CF0583A05)
Полное имя : C:\Катя и Блэк.(2020).HDTVRip.(AVC).Files-x\01.Katja i Bljek.(2020).HDTVRip.(AVC).by.Серый1779.Files-x.mkv
Формат : Matroska
Версия формата : Version 2
Размер файла : 803 Мбайт
Продолжительность : 51 м. 11 с.
Общий поток : 2 194 Кбит/сек
Дата кодирования : UTC 2020-05-11 17:10:02
Программа кодирования : mkvmerge v7.8.0 (''River Man'') 32bit built on Apr 3 2015 12:11:22
Библиотека кодирования : libebml v1.3.1 + libmatroska v1.4.2

Видео
Идентификатор : 1
Формат : AVC
Формат/Информация : Advanced Video Codec
Профиль формата :
Настройки формата : CABAC / 9 Ref Frames
Параметр CABAC формата : Да
Параметр RefFrames формата : 9 кадров
Идентификатор кодека : V_MPEG4/ISO/AVC
Продолжительность : 51 м. 11 с.
Битрейт : 2 000 Кбит/сек
Ширина : 1 024 пикселя
Высота : 576 пикселей
Соотношение сторон : 16:9
Режим частоты кадров : Постоянный
Частота кадров : 25,000 кадров/сек
Цветовое пространство : YUV
Субдискретизация насыщенности : 4:2:0
Битовая глубина : 8 бит
Тип развёртки : Прогрессивная
Бит/(Пиксели*Кадры) : 0.136
Размер потока : 717 Мбайт (89%)
Библиотека кодирования : x264 core 146 r2538 121396c
Настройки программы : cabac=1 / ref=9 / deblock=1:-2:-1 / analyse=0x3:0x133 / me=umh / subme=9 / psy=1 / psy_rd=1.00:0.15 / mixed_ref=1 / me_range=32 / chroma_me=1 / trellis=2 / 8x8dct=1 / cqm=0 / deadzone=21,11 / fast_pskip=0 / chroma_qp_offset=-3 / threads=18 / lookahead_threads=3 / sliced_threads=0 / nr=0 / decimate=1 / interlaced=0 / bluray_compat=0 / constrained_intra=0 / bframes=9 / b_pyramid=2 / b_adapt=2 / b_bias=0 / direct=1 / weightb=1 / open_gop=0 / weightp=2 / keyint=250 / keyint_min=25 / scenecut=40 / intra_refresh=0 / rc=2pass / mbtree=0 / bitrate=2000 / ratetol=1.0 / qcomp=0.60 / qpmin=0 / qpmax=69 / qpstep=4 / cplxblur=20.0 / qblur=0.5 / ip_ratio=1.40 / pb_ratio=1.30 / aq=2:1.00
Default : Да
Forced : Нет
Цветовой диапазон : Limited
Основные цвета : BT.709
Характеристики трансфера : BT.709
Коэффициенты матрицы : BT.709
Duration_Source : General_Duration

Аудио
Идентификатор : 2
Формат : AC-3
Формат/Информация : Audio Coding 3
Коммерческое название : Dolby Digital
Идентификатор кодека : A_AC3
Продолжительность : 51 м. 11 с.
Вид битрейта : Постоянный
Битрейт : 192 Кбит/сек
Каналы : 2 канала
Channel layout : L R
Частота : 48,0 КГц
Частота кадров : 31,250 кадров/сек (1536 SPF)
Метод сжатия : С потерями
Размер потока : 70,3 Мбайт (9%)
Service kind : Complete Main
Default : Да
Forced : Нет
Duration_Source : General_Duration









   Похожие торренты   Торрент   Размер 
В этой теме нет новых непрочитанных сообщений. Катя и Блэк (1-8 серии из 8) (Гузэль Киреева) [2018, детектив, HDTVRip-AVC]

50 | 20

6.31 ГБ

В этой теме нет новых непрочитанных сообщений. Катя и Блэк (1-4 серии из 8) (Гузэль Киреева) [2018, детектив, HDTVRip-AVC]

21 | 3

3.15 ГБ

В этой теме нет новых непрочитанных сообщений. Катя и Блэк (1-2 серии из 8) (Гузэль Киреева) [2018, детектив, HDTVRip-AVC]

10 | 10

1.57 ГБ

В этой теме нет новых непрочитанных сообщений. Катя и Блэк (1-5 серии из 8) (Гузэль Киреева) [2018, детектив, HDTVRip-AVC]

0 | 0

3.94 ГБ

В этой теме нет новых непрочитанных сообщений. Катя и Блэк (1-2 серии из 8) (Гузэль Киреева) [2018, детектив, HDTVRip]

26 | 20

1.29 ГБ

В этой теме нет новых непрочитанных сообщений. Катя и Блэк (1-7 серии из 8) (Гузэль Киреева) [2018, детектив, HDTVRip]

29 | 32

4.54 ГБ

В этой теме нет новых непрочитанных сообщений. Катя и Блэк (1-4 серии из 8) (Гузэль Киреева) [2018, детектив, HDTVRip]

68 | 38

2.59 ГБ




Вы не можете начинать темы
Вы не можете отвечать на сообщения
Вы не можете редактировать свои сообщения
Вы не можете удалять свои сообщения
Вы не можете добавлять вложения

Перейти:  
Контактная информация: rstracker[пёсик]yandex.ru
 Вход
ppkBB3cker v.2 © 2008-2014 @ PPK
[ Time : 0.030s | 18 Queries | GZIP : Off ]

cron