img image001 image001 image001 image001 image001 image001 image001 image001 image001 image001 image001 image001 image001 image001 image001

Planets Sun Sun Sun

COVID-19 - Последняя информация о коронавирусе на сайте Минздрава


Статистика раздачи
Автор: Снежана | Размер: 22.09 ГБ | Добавлен: 20 май 2020
Раздают: 0    Качают: 0
Скачать торрент
Скачать торрент
Описание торрента

СообщениеДобавлено: 20 май 2020 

Мятеж (1-8 серии из 8)

Перевод: Не требуется, cубтитры: отсутствуют
Формат: HDTV 1080i, MPEG-TS, H.264, MP3
Страна: Россия
Режиссер: Сергей Пикалов
Жанр: драма, история
Всего серий: 8
Продолжительность: 8 х ~ 00:50:00
Год выпуска: 2020

В ролях: Любовь Аксёнова, Юрий Чурсин, Алексей Бардуков, Сергей Шакуров, Сергей Никоненко, Наталья Карпунина, Александр Вдовин, Василий Симонов, Павел Табаков, Евгений Харитонов (II), Анатолий Завьялов, Александр Давыдов (IV), Иван Добронравов, Александр Цереня, Мария Машкова, Екатерина Сеничкина, Артемий Падалка

Описание: 1921. Лиза Журавлева задержана ЧК по обвинению в организации Ярославского мятежа. Следователь Воронов понимает, что ради спасения маленького сына Лиза расскажет все. Ее показания, по сути, оказываются историей любви на фоне Первой мировой, революции, гражданской войны. Историческая мясорубка перемалывает любовь Лизы к бедному курсанту Сычеву, ее ненависть к распущенному капитану Крушевскому, за которого ее силой отдали замуж, полностью меняет отношения между героями. Рассказ Лизы заставляет Воронова переосмыслить свои представления о революции и справедливости.

Рейтинг и доп. информация:


Видео: 1920x1080, (16:9), 25 fps, AVC MPEG-TS (x264), High@L4 ~ 7274 kbps , 0.140 bit/pixel
Аудио: 48 kHz, MPEG Layer 2, 2 ch, ~256.00 kbps avg
Общее
Идентификатор : 1 (0x1)
Полное имя : C:\Myatezh.2020.HDTV(1080i).25Kuzmich\Myatezh.e01.HDTV(1080i).25Kuzmich.ts
Формат : MPEG-TS
Размер файла : 2,79 Гбайт
Продолжительность : 50 м. 22 с.
Режим общего битрейта : Переменный
Общий поток : 7 924 Кбит/сек

Видео
Идентификатор : 5501 (0x157D)
Идентификатор меню : 5500 (0x157C)
Формат : AVC
Формат/Информация : Advanced Video Codec
Профиль формата : High@L4
Настройки формата : CABAC / 3 Ref Frames
Параметр CABAC формата : Да
Параметр RefFrames формата : 3 кадра
Идентификатор кодека : 27
Продолжительность : 50 м. 21 с.
Битрейт : 7 274 Кбит/сек
Ширина : 1 920 пикселей
Высота : 1 080 пикселей
Соотношение сторон : 16:9
Частота кадров : 25,000 кадров/сек
Стандарт вещания : Component
Цветовое пространство : YUV
Субдискретизация насыщенности : 4:2:0
Битовая глубина : 8 бит
Тип развёртки : Чересстрочная
Метод сохранения типа развёртки : Раздельные поля
Порядок развёртки : Верхнее поле первое
Бит/(Пиксели*Кадры) : 0.140
Размер потока : 2,56 Гбайт (92%)
Цветовой диапазон : Limited
Основные цвета : BT.709
Характеристики трансфера : BT.709
Коэффициенты матрицы : BT.709

Аудио
Идентификатор : 5504 (0x1580)
Идентификатор меню : 5500 (0x157C)
Формат : MPEG Audio
Версия формата : Version 1
Профиль формата : Layer 2
Идентификатор кодека : 3
Продолжительность : 50 м. 21 с.
Вид битрейта : Постоянный
Битрейт : 256 Кбит/сек
Каналы : 2 канала
Частота : 48,0 КГц
Частота кадров : 41,667 кадра/сек (1152 SPF)
Метод сжатия : С потерями
Задержка видео : -120 мс.
Размер потока : 92,2 Мбайт (3%)
Язык : Russian









   Похожие торренты   Торрент   Размер 
В этой теме нет новых непрочитанных сообщений. Мятеж (1-4 серии из 8) (Сергей Пикалов) [2020, драма, история, HDTV 1080i]

5 | 3

11.02 ГБ

В этой теме нет новых непрочитанных сообщений. Мятеж (1-8 серии из 8) (Сергей Пикалов) [2020, драма, история, HDTVRip]

75 | 6

4.69 ГБ

В этой теме нет новых непрочитанных сообщений. Мятеж (1-4 серии из 8) (Сергей Пикалов) [2020, драма, история, HDTVRip]

3 | 0

2.34 ГБ

В этой теме нет новых непрочитанных сообщений. Мятеж (1-4 серии из 8) (Сергей Пикалов) [2020, драма, история, HDTVRip-AVC]

0 | 0

3.05 ГБ

В этой теме нет новых непрочитанных сообщений. Мятеж (1-8 серии из 8) (Сергей Пикалов) [2020, драма, история, HDTVRip-AVC]

35 | 8

6.11 ГБ

В этой теме нет новых непрочитанных сообщений. Мятеж (1-8 серии из 8) (Сергей Пикалов) [2020, драма, история, HDTVRip 720p]

33 | 9

10.29 ГБ

В этой теме нет новых непрочитанных сообщений. Мятеж (1-4 серии из 8) (Сергей Пикалов) [2020, драма, история, HDTVRip 720p]

0 | 0

5.13 ГБ




Вы не можете начинать темы
Вы не можете отвечать на сообщения
Вы не можете редактировать свои сообщения
Вы не можете удалять свои сообщения
Вы не можете добавлять вложения

Перейти:  
Контактная информация: rstracker[пёсик]yandex.ru
 Вход
ppkBB3cker v.2 © 2008-2014 @ PPK
[ Time : 3.976s | 16 Queries | GZIP : Off ]

cron