img image001 image001 image001 image001 image001 image001 image001 image001 image001 image001 image001 image001 image001 image001 image001

Planets Sun Sun Sun

COVID-19 - Последняя информация о коронавирусе на сайте Минздрава


Статистика раздачи
Автор: Снежана | Размер: 10.29 ГБ | Добавлен: 20 май 2020
Раздают: 47    Качают: 19


Скачать торрент
Скачать торрент
Описание торрента

СообщениеДобавлено: 20 май 2020 

Мятеж (1-8 серии из 8)

Перевод: Не требуется, cубтитры: отсутствуют
Формат: HDTVRip 720p, MKV, H.264, AC3
Страна: Россия
Режиссер: Сергей Пикалов
Жанр: драма, история
Всего серий: 8
Продолжительность: 8 х ~ 00:50:00
Год выпуска: 2020

В ролях: Любовь Аксёнова, Юрий Чурсин, Алексей Бардуков, Сергей Шакуров, Сергей Никоненко, Наталья Карпунина, Александр Вдовин, Василий Симонов, Павел Табаков, Евгений Харитонов (II), Анатолий Завьялов, Александр Давыдов (IV), Иван Добронравов, Александр Цереня, Мария Машкова, Екатерина Сеничкина, Артемий Падалка

Описание: 1921. Лиза Журавлева задержана ЧК по обвинению в организации Ярославского мятежа. Следователь Воронов понимает, что ради спасения маленького сына Лиза расскажет все. Ее показания, по сути, оказываются историей любви на фоне Первой мировой, революции, гражданской войны. Историческая мясорубка перемалывает любовь Лизы к бедному курсанту Сычеву, ее ненависть к распущенному капитану Крушевскому, за которого ее силой отдали замуж, полностью меняет отношения между героями. Рассказ Лизы заставляет Воронова переосмыслить свои представления о революции и справедливости.

Рейтинг и доп. информация:


Видео: 1280х720, (16:9), 25 fps, AVC MPEG-4 (x264), ~ 3500 kbps , 0.152 bit/pixel
Аудио: 48 kHz, АС3, 2/0 (L,R), ~192.00 kbps avg
Общее
Уникальный идентификатор : 204821338945032467888870951725370968598 (0x9A1727AD9483428EA3B8D2BF98000A16)
Полное имя : C:\Myatezh.2020.HDTVRip.(720p).ExKinoRay\Myatezh.E01.2020.HDTVRip.(720p).ExKinoRay.mkv
Формат : Matroska
Версия формата : Version 4
Размер файла : 1,30 Гбайт
Продолжительность : 50 м. 21 с.
Общий поток : 3 694 Кбит/сек
Дата кодирования : UTC 2020-05-18 17:17:59
Программа кодирования : mkvmerge v6.9.1 (''Blue Panther'') 64bit built on Apr 18 2014 18:23:38
Библиотека кодирования : libebml v1.3.0 + libmatroska v1.4.1

Видео
Идентификатор : 1
Формат : AVC
Формат/Информация : Advanced Video Codec
Профиль формата :
Настройки формата : CABAC / 9 Ref Frames
Параметр CABAC формата : Да
Параметр RefFrames формата : 9 кадров
Идентификатор кодека : V_MPEG4/ISO/AVC
Продолжительность : 50 м. 21 с.
Битрейт : 3 500 Кбит/сек
Ширина : 1 280 пикселей
Высота : 720 пикселей
Соотношение сторон : 16:9
Режим частоты кадров : Постоянный
Частота кадров : 25,000 кадров/сек
Цветовое пространство : YUV
Субдискретизация насыщенности : 4:2:0
Битовая глубина : 8 бит
Тип развёртки : Прогрессивная
Бит/(Пиксели*Кадры) : 0.152
Размер потока : 1,21 Гбайт (93%)
Библиотека кодирования : x264 core 146 r2538 121396c
Настройки программы : cabac=1 / ref=9 / deblock=1:-3:-3 / analyse=0x3:0x113 / me=umh / subme=11 / psy=1 / psy_rd=1.00:0.20 / mixed_ref=1 / me_range=32 / chroma_me=1 / trellis=2 / 8x8dct=1 / cqm=0 / deadzone=21,11 / fast_pskip=1 / chroma_qp_offset=-3 / threads=24 / lookahead_threads=10 / sliced_threads=0 / nr=0 / decimate=0 / interlaced=0 / bluray_compat=0 / constrained_intra=0 / bframes=10 / b_pyramid=2 / b_adapt=2 / b_bias=0 / direct=3 / weightb=1 / open_gop=0 / weightp=2 / keyint=250 / keyint_min=25 / scenecut=40 / intra_refresh=0 / rc_lookahead=60 / rc=2pass / mbtree=1 / bitrate=3500 / ratetol=1.0 / qcomp=0.60 / qpmin=0 / qpmax=69 / qpstep=4 / cplxblur=20.0 / qblur=0.5 / vbv_maxrate=14000 / vbv_bufsize=14000 / nal_hrd=none / filler=0 / ip_ratio=1.40 / aq=3:1.40
Default : Нет
Forced : Нет
Цветовой диапазон : Limited
Основные цвета : BT.709
Характеристики трансфера : BT.709
Коэффициенты матрицы : BT.709
Duration_Source : General_Duration

Аудио
Идентификатор : 2
Формат : AC-3
Формат/Информация : Audio Coding 3
Коммерческое название : Dolby Digital
Идентификатор кодека : A_AC3
Продолжительность : 50 м. 21 с.
Вид битрейта : Постоянный
Битрейт : 192 Кбит/сек
Каналы : 2 канала
Channel layout : L R
Частота : 48,0 КГц
Частота кадров : 31,250 кадров/сек (1536 SPF)
Метод сжатия : С потерями
Размер потока : 69,2 Мбайт (5%)
Язык : Russian
Service kind : Complete Main
Default : Да
Forced : Да
Duration_Source : General_Duration









   Похожие торренты   Торрент   Размер 
В этой теме нет новых непрочитанных сообщений. Мятеж (1-4 серии из 8) (Сергей Пикалов) [2020, драма, история, HDTVRip 720p]

0 | 0

5.13 ГБ

В этой теме нет новых непрочитанных сообщений. Мятеж (1-8 серии из 8) (Сергей Пикалов) [2020, драма, история, HDTVRip]

122 | 17

4.69 ГБ

В этой теме нет новых непрочитанных сообщений. Мятеж (1-4 серии из 8) (Сергей Пикалов) [2020, драма, история, HDTVRip]

18 | 2

2.34 ГБ

В этой теме нет новых непрочитанных сообщений. Мятеж (1-8 серии из 8) (Сергей Пикалов) [2020, драма, история, HDTVRip-AVC]

80 | 11

6.11 ГБ

В этой теме нет новых непрочитанных сообщений. Мятеж (1-4 серии из 8) (Сергей Пикалов) [2020, драма, история, HDTVRip-AVC]

0 | 0

3.05 ГБ

В этой теме нет новых непрочитанных сообщений. Мятеж (1-4 серии из 8) (Сергей Пикалов) [2020, драма, история, HDTV 1080i]

5 | 3

11.02 ГБ

В этой теме нет новых непрочитанных сообщений. Мятеж (1-8 серии из 8) (Сергей Пикалов) [2020, драма, история, HDTV 1080i]

0 | 0

22.09 ГБ




Вы не можете начинать темы
Вы не можете отвечать на сообщения
Вы не можете редактировать свои сообщения
Вы не можете удалять свои сообщения
Вы не можете добавлять вложения

Перейти:  
Контактная информация: rstracker[пёсик]yandex.ru
 Вход
ppkBB3cker v.2 © 2008-2014 @ PPK
[ Time : 0.028s | 16 Queries | GZIP : Off ]

cron