img image001 image001 image001 image001 image001 image001 image001 image001 image001 image001 image001 image001 image001 image001 image001

Planets Sun Sun Sun

COVID-19 - Последняя информация о коронавирусе на сайте Минздрава


Статистика раздачи
Автор: Снежана | Размер: 6.11 ГБ | Добавлен: 20 май 2020
Раздают: 80    Качают: 11


Скачать торрент
Скачать торрент
Описание торрента

СообщениеДобавлено: 20 май 2020 

Мятеж (1-8 серии из 8)

Перевод: Не требуется, cубтитры: отсутствуют
Формат: HDTVRip-AVC, MKV, H.264, AC3
Страна: Россия
Режиссер: Сергей Пикалов
Жанр: драма, история
Всего серий: 8
Продолжительность: 8 х ~ 00:50:00
Год выпуска: 2020

В ролях: Любовь Аксёнова, Юрий Чурсин, Алексей Бардуков, Сергей Шакуров, Сергей Никоненко, Наталья Карпунина, Александр Вдовин, Василий Симонов, Павел Табаков, Евгений Харитонов (II), Анатолий Завьялов, Александр Давыдов (IV), Иван Добронравов, Александр Цереня, Мария Машкова, Екатерина Сеничкина, Артемий Падалка

Описание: 1921. Лиза Журавлева задержана ЧК по обвинению в организации Ярославского мятежа. Следователь Воронов понимает, что ради спасения маленького сына Лиза расскажет все. Ее показания, по сути, оказываются историей любви на фоне Первой мировой, революции, гражданской войны. Историческая мясорубка перемалывает любовь Лизы к бедному курсанту Сычеву, ее ненависть к распущенному капитану Крушевскому, за которого ее силой отдали замуж, полностью меняет отношения между героями. Рассказ Лизы заставляет Воронова переосмыслить свои представления о революции и справедливости.

Рейтинг и доп. информация:


Видео: 1024x576, (16:9), 25 fps, AVC MPEG-4 (x264), ~ 2000 kbps , 0.136 bit/pixel
Аудио: 48 kHz, АС3, 2/0 (L,R), ~192.00 kbps avg
Общее
Уникальный идентификатор : 236665415353286409837744404760091072205 (0xB20C19DCA4402C4EB854369FEBEA96CD)
Полное имя : C:\Мятеж.(2020).HDTVRip.(AVC).Files-x\01.Myatezh.(2020).HDTVRip.(AVC).by.Серый1779.Files-x.mkv
Формат : Matroska
Версия формата : Version 2
Размер файла : 790 Мбайт
Продолжительность : 50 м. 21 с.
Общий поток : 2 194 Кбит/сек
Дата кодирования : UTC 2020-05-18 16:48:33
Программа кодирования : mkvmerge v7.8.0 (''River Man'') 32bit built on Apr 3 2015 12:11:22
Библиотека кодирования : libebml v1.3.1 + libmatroska v1.4.2

Видео
Идентификатор : 1
Формат : AVC
Формат/Информация : Advanced Video Codec
Профиль формата :
Настройки формата : CABAC / 9 Ref Frames
Параметр CABAC формата : Да
Параметр RefFrames формата : 9 кадров
Идентификатор кодека : V_MPEG4/ISO/AVC
Продолжительность : 50 м. 21 с.
Битрейт : 2 000 Кбит/сек
Ширина : 1 024 пикселя
Высота : 576 пикселей
Соотношение сторон : 16:9
Режим частоты кадров : Постоянный
Частота кадров : 25,000 кадров/сек
Цветовое пространство : YUV
Субдискретизация насыщенности : 4:2:0
Битовая глубина : 8 бит
Тип развёртки : Прогрессивная
Бит/(Пиксели*Кадры) : 0.136
Размер потока : 705 Мбайт (89%)
Библиотека кодирования : x264 core 146 r2538 121396c
Настройки программы : cabac=1 / ref=9 / deblock=1:-2:-1 / analyse=0x3:0x133 / me=umh / subme=9 / psy=1 / psy_rd=1.00:0.15 / mixed_ref=1 / me_range=32 / chroma_me=1 / trellis=2 / 8x8dct=1 / cqm=0 / deadzone=21,11 / fast_pskip=0 / chroma_qp_offset=-3 / threads=18 / lookahead_threads=3 / sliced_threads=0 / nr=0 / decimate=1 / interlaced=0 / bluray_compat=0 / constrained_intra=0 / bframes=9 / b_pyramid=2 / b_adapt=2 / b_bias=0 / direct=1 / weightb=1 / open_gop=0 / weightp=2 / keyint=250 / keyint_min=25 / scenecut=40 / intra_refresh=0 / rc=2pass / mbtree=0 / bitrate=2000 / ratetol=1.0 / qcomp=0.60 / qpmin=0 / qpmax=69 / qpstep=4 / cplxblur=20.0 / qblur=0.5 / ip_ratio=1.40 / pb_ratio=1.30 / aq=2:1.00
Default : Да
Forced : Нет
Цветовой диапазон : Limited
Основные цвета : BT.709
Характеристики трансфера : BT.709
Коэффициенты матрицы : BT.709
Duration_Source : General_Duration

Аудио
Идентификатор : 2
Формат : AC-3
Формат/Информация : Audio Coding 3
Коммерческое название : Dolby Digital
Идентификатор кодека : A_AC3
Продолжительность : 50 м. 21 с.
Вид битрейта : Постоянный
Битрейт : 192 Кбит/сек
Каналы : 2 канала
Channel layout : L R
Частота : 48,0 КГц
Частота кадров : 31,250 кадров/сек (1536 SPF)
Метод сжатия : С потерями
Размер потока : 69,2 Мбайт (9%)
Service kind : Complete Main
Default : Да
Forced : Нет
Duration_Source : General_Duration













   Похожие торренты   Торрент   Размер 
В этой теме нет новых непрочитанных сообщений. Мятеж (1-4 серии из 8) (Сергей Пикалов) [2020, драма, история, HDTVRip-AVC]

0 | 0

3.05 ГБ

В этой теме нет новых непрочитанных сообщений. Мятеж (1-8 серии из 8) (Сергей Пикалов) [2020, драма, история, HDTVRip]

122 | 17

4.69 ГБ

В этой теме нет новых непрочитанных сообщений. Мятеж (1-4 серии из 8) (Сергей Пикалов) [2020, драма, история, HDTVRip]

34 | 5

2.34 ГБ

В этой теме нет новых непрочитанных сообщений. Мятеж (1-4 серии из 8) (Сергей Пикалов) [2020, драма, история, HDTVRip 720p]

5 | 0

5.13 ГБ

В этой теме нет новых непрочитанных сообщений. Мятеж (1-8 серии из 8) (Сергей Пикалов) [2020, драма, история, HDTVRip 720p]

47 | 19

10.29 ГБ

В этой теме нет новых непрочитанных сообщений. Мятеж (1-8 серии из 8) (Сергей Пикалов) [2020, драма, история, HDTV 1080i]

0 | 0

22.09 ГБ

В этой теме нет новых непрочитанных сообщений. Мятеж (1-4 серии из 8) (Сергей Пикалов) [2020, драма, история, HDTV 1080i]

5 | 3

11.02 ГБ




Вы не можете начинать темы
Вы не можете отвечать на сообщения
Вы не можете редактировать свои сообщения
Вы не можете удалять свои сообщения
Вы не можете добавлять вложения

Перейти:  
Контактная информация: rstracker[пёсик]yandex.ru
 Вход
ppkBB3cker v.2 © 2008-2014 @ PPK
[ Time : 0.032s | 16 Queries | GZIP : Off ]

cron