img image001 image001 image001 image001 image001 image001 image001 image001 image001 image001 image001 image001 image001 image001 image001

Planets Sun Sun Sun

COVID-19 - Последняя информация о коронавирусе на сайте Минздрава


Статистика раздачи
Автор: Снежана | Размер: 7.65 ГБ | Добавлен: 20 май 2020
Раздают: 0    Качают: 0


Скачать торрент
Скачать торрент
Описание торрента

СообщениеДобавлено: 20 май 2020 

Папаньки (2 сезон 1-12 серии из 16)

Перевод: Не требуется, cубтитры: отсутствуют
Формат: WEB-DLRip-AVC, MKV, H.264, AC3
Страна: Украина
Режиссер: Максим Бернадский
Жанр: комедия
Всего серий: 16
Продолжительность: 12 х ~ 00:48:40
Год выпуска: 2020

В ролях: Егор Крутоголов, Лилия Ребрик, Андрей Фединчик, Евгений Сморигин, Ольга Лукьяненко, Евгений Гашенко, Ольга Арутюнян, Виктория Булитко, Яна Глущенко, Вероника Лукьяненко, Наталия Денисенко, Ангелина Платко, Алексей Сморигин, Виталина Библив, Дмитрий Танкович, Евгений Никишин

Описание: Сериал рассказывает об их отношениях со своими чадами, женами и родителями. Герои постоянно попадают в забавные, порой нелепые и всегда очень смешные ситуации. Во втором сезоне героев сериала ждут новые испытания и приключения. В семье Егора и Светы произойдут изменения на почве недостатка денег. У гуляки и змея-искусителя Саши неожиданно появится взрослый сын. А в семью многодетного папы Женечки Малышева вернется его жена, что приведёт к новому конфликту невестка-свекровь. Дочери Никиты и Иры уже полгодика, и это очень влияет на отношения пары. А тут еще и коллега Никиты по работе подливает масла в огонь…

Рейтинг и доп. информация:


Видео: 1024x576, (16:9), 30 fps, AVC MPEG-4 (x264), ~ 1600 kbps , 0.090 bit/pixel
Аудио: 48 kHz, AC3, 2/0 (L,R) ch, ~192.00 kbps avg
Внимание! Раздача ведётся путём добавления новых серий. При каждом добавлении создаётся новый торрент.
Чтобы начать докачку новой серии, пользователям необходимо сделать следующее:
1. Остановить скачивание.
2. Удалить старый торрент у себя из клиента (старые серии удалять не надо).
3. Скачать новый торрент и запустить его у себя в клиенте вместо старого, при этом указать клиенту путь в старую папку куда и должно происходить скачивание новых серий. Ваш клиент при этом должен произвести хеширование (проверку) старой папки и будет докачивать только те серии, которых у вас ещё нет. Старые серии при этом не удаляются, а продолжают раздаваться! Eсли вы уже удалили старые серии, то предотвратить повторную закачку старых серий можно, отжав галочку в соответствующих местах при запуске нового торрента.


(17) 01 серия «Танцы»
(18) 02 серия «Собака»
(19) 03 серия «Выборы»
(20) 04 серия «Машина»
(21) 05 серия «Начальник»
(22) 06 серия «Долги»
(23) 07 серия «Бомж»
(24) 08 серия «Угон»
(25) 09 серия «Риэлтор»
(26) 10 серия «Велосипед»
(27) 11 серия «Водитель»
(28
) 12 серия «Киллер»
(29) 13 серия «»
(30) 14 серия «»
(31) 15 серия «»
(32) 16 серия «»


Общее
Уникальный идентификатор : 177603503733370877246604618839838320469 (0x859D30CB9BC5A8E7819928D8E34A6755)
Полное имя : C:\Папаньки.S02.(2020).WEB-DLRip.(AVC).Files-x\01.Папаньки.S02.(2020).WEB-DLRip.(AVC).by.Серый1779.Files-x.mkv
Формат : Matroska
Версия формата : Version 2
Размер файла : 656 Мбайт
Продолжительность : 51 м. 5 с.
Общий поток : 1 794 Кбит/сек
Дата кодирования : UTC 2020-05-11 21:48:45
Программа кодирования : mkvmerge v7.8.0 (''River Man'') 32bit built on Apr 3 2015 12:11:22
Библиотека кодирования : libebml v1.3.1 + libmatroska v1.4.2

Видео
Идентификатор : 1
Формат : AVC
Формат/Информация : Advanced Video Codec
Профиль формата :
Настройки формата : CABAC / 9 Ref Frames
Параметр CABAC формата : Да
Параметр RefFrames формата : 9 кадров
Идентификатор кодека : V_MPEG4/ISO/AVC
Продолжительность : 51 м. 5 с.
Битрейт : 1 600 Кбит/сек
Ширина : 1 024 пикселя
Высота : 576 пикселей
Соотношение сторон : 16:9
Режим частоты кадров : Постоянный
Частота кадров : 30,000 кадров/сек
Цветовое пространство : YUV
Субдискретизация насыщенности : 4:2:0
Битовая глубина : 8 бит
Тип развёртки : Прогрессивная
Бит/(Пиксели*Кадры) : 0.090
Размер потока : 572 Мбайт (87%)
Библиотека кодирования : x264 core 146 r2538 121396c
Настройки программы : cabac=1 / ref=9 / deblock=1:-2:-1 / analyse=0x3:0x133 / me=umh / subme=9 / psy=1 / psy_rd=1.00:0.15 / mixed_ref=1 / me_range=32 / chroma_me=1 / trellis=2 / 8x8dct=1 / cqm=0 / deadzone=21,11 / fast_pskip=0 / chroma_qp_offset=-3 / threads=18 / lookahead_threads=3 / sliced_threads=0 / nr=0 / decimate=1 / interlaced=0 / bluray_compat=0 / constrained_intra=0 / bframes=9 / b_pyramid=2 / b_adapt=2 / b_bias=0 / direct=1 / weightb=1 / open_gop=0 / weightp=2 / keyint=250 / keyint_min=25 / scenecut=40 / intra_refresh=0 / rc=2pass / mbtree=0 / bitrate=1600 / ratetol=1.0 / qcomp=0.60 / qpmin=0 / qpmax=69 / qpstep=4 / cplxblur=20.0 / qblur=0.5 / ip_ratio=1.40 / pb_ratio=1.30 / aq=2:1.00
Default : Да
Forced : Нет
Цветовой диапазон : Limited
Основные цвета : BT.709
Характеристики трансфера : BT.709
Коэффициенты матрицы : BT.709
Duration_Source : General_Duration

Аудио
Идентификатор : 2
Формат : AC-3
Формат/Информация : Audio Coding 3
Коммерческое название : Dolby Digital
Идентификатор кодека : A_AC3
Продолжительность : 51 м. 5 с.
Вид битрейта : Постоянный
Битрейт : 192 Кбит/сек
Каналы : 2 канала
Channel layout : L R
Частота : 48,0 КГц
Частота кадров : 31,250 кадров/сек (1536 SPF)
Метод сжатия : С потерями
Размер потока : 70,2 Мбайт (11%)
Service kind : Complete Main
Default : Да
Forced : Нет
Duration_Source : General_Duration













   Похожие торренты   Торрент   Размер 
В этой теме нет новых непрочитанных сообщений. Папаньки (2 сезон 1-8 серии из 16) (Максим Бернадский) [2020, комедия, WEB-DLRip-AVC]

8 | 1

5.09 ГБ

В этой теме нет новых непрочитанных сообщений. Папаньки (2 сезон 1-16 серии из 16) (Максим Бернадский) [2020, комедия, WEB-DLRip-AVC]

13 | 7

10.23 ГБ

В этой теме нет новых непрочитанных сообщений. Папаньки (2 сезон 1-4 серии из 16) (Максим Бернадский) [2020, комедия, WEB-DLRip-AVC]

5 | 0

2.49 ГБ

В этой теме нет новых непрочитанных сообщений. Папаньки (2 сезон 1-16 серии из 16) (Максим Бернадский) [2020, комедия, WEB-DLRip]

17 | 10

10.39 ГБ

В этой теме нет новых непрочитанных сообщений. Папаньки (2 сезон 1-10 серии из 16) (Максим Бернадский) [2020, комедия, WEB-DLRip]

0 | 0

6.53 ГБ

В этой теме нет новых непрочитанных сообщений. Папаньки (2 сезон 1- серии из 16) (Максим Бернадский) [2020, комедия, WEB-DLRip]

0 | 1

674.23 МБ

В этой теме нет новых непрочитанных сообщений. Папаньки (2 сезон 1-8 серии из 16) (Максим Бернадский) [2020, комедия, WEB-DLRip]

1 | 0

5.17 ГБ




Вы не можете начинать темы
Вы не можете отвечать на сообщения
Вы не можете редактировать свои сообщения
Вы не можете удалять свои сообщения
Вы не можете добавлять вложения

Перейти:  
Контактная информация: rstracker[пёсик]yandex.ru
 Вход
ppkBB3cker v.2 © 2008-2014 @ PPK
[ Time : 2.163s | 16 Queries | GZIP : Off ]

cron