img image001 image001 image001 image001 image001 image001 image001 image001 image001 image001 image001 image001 image001 image001 image001

Planets Sun Sun Sun

COVID-19 - Последняя информация о коронавирусе на сайте Минздрава


Статистика раздачи
Автор: Снежана | Размер: 4.26 ГБ | Добавлен: 20 май 2020
Раздают: 4    Качают: 8


Скачать торрент
Скачать торрент
Описание торрента

СообщениеДобавлено: 20 май 2020 

Катя и Блэк (1-7 серии из 8)

Перевод: Не требуется, cубтитры: отсутствуют
Формат: SATRip, MKV, H.264, AC3
Страна: Россия
Режиссер: Гузэль Киреева
Жанр: детектив
Всего серий: 8
Продолжительность: 7 ~ 00:51:00
Год выпуска: 2018

В ролях: Юлия Мельникова, Дмитрий Ратомский, Сергей Громов, Марина Дровосекова, Константин Милованов, Анатолий Голуб, Армен Арушанян, Михаил Евланов, Владимир Кошевой, Владимир Юматов, Степан Абрамов, Александр Бобров, Александр Гунькин, Александр Красовский, Алёна Новицкая, Ян Хуснояров, Борис Щербаков, Дэвид Аласания, Михаил Владимиров, Артём Кошман, Александра Назарова

Описание: Капитан полиции Екатерина Шатрова, рискуя жизнью, помогает в поимке серийного убийцы Котова. Однако у преступника на свободе остался жестокий подельник, который начинает выслеживать Шатрову, чтобы отомстить. К счастью, Катю переводят в областной центр, где она возглавляет группу оперативников, состоящую из брутального капитана Андрея Веселова, интеллектуала Василия Савчука и эксперта-криминалиста Арины Соболь. Но, главное, что волею случая в жизни Кати появляется умный и самоотверженный пес по кличке Блэк. Обаятельный золотистый ретривер начинает помогать своей новой хозяйке в расследованиях. Вместе они раскрывают множество сложных дел, и каждый раз Блэк оказывается «на высоте», находя важные улики, выслеживая насильников, похитителей и убийц, а также охраняя Катину дочь Лизу… Но окажется ли Блэк рядом с Катей, когда ей самой понадобится помощь…

Рейтинг и доп. информация:


Видео: 720х400, (16:9), 25 fps, AVC MPEG-4 (x264), ~ 1500 kbps , 0.208 bit/pixel
Аудио: 48 kHz, АС3, 2/0 (L,R), ~192.00 kbps avg
Внимание! Раздача ведётся путём добавления новых серий. При каждом добавлении создаётся новый торрент.
Чтобы начать докачку новой серии, пользователям необходимо сделать следующее:
1. Остановить скачивание.
2. Удалить старый торрент у себя из клиента (старые серии удалять не надо).
3. Скачать новый торрент и запустить его у себя в клиенте вместо старого, при этом указать клиенту путь в старую папку куда и должно происходить скачивание новых серий. Ваш клиент при этом должен произвести хеширование (проверку) старой папки и будет докачивать только те серии, которых у вас ещё нет. Старые серии при этом не удаляются, а продолжают раздаваться! Eсли вы уже удалили старые серии, то предотвратить повторную закачку старых серий можно, отжав галочку в соответствующих местах при запуске нового торрента.


Общее
Уникальный идентификатор : 178441265862353230820630899527361830763 (0x863E89A8457702F7A6A9D497AA6D1F6B)
Полное имя : C:\Катя и Блэк\01 серия_Катя и Блэк_rip by_Aleksan55.mkv
Формат : Matroska
Версия формата : Version 2
Размер файла : 620 Мбайт
Продолжительность : 51 м. 11 с.
Общий поток : 1 694 Кбит/сек
Дата кодирования : UTC 2020-05-11 10:52:27
Программа кодирования : mkvmerge v7.8.0 (''River Man'') 32bit built on Apr 3 2015 12:11:22
Библиотека кодирования : libebml v1.3.1 + libmatroska v1.4.2

Видео
Идентификатор : 1
Формат : AVC
Формат/Информация : Advanced Video Codec
Профиль формата :
Настройки формата : CABAC / 12 Ref Frames
Параметр CABAC формата : Да
Параметр RefFrames формата : 12 кадров
Идентификатор кодека : V_MPEG4/ISO/AVC
Продолжительность : 51 м. 11 с.
Битрейт : 1 500 Кбит/сек
Ширина : 720 пикселей
Высота : 400 пикселей
Соотношение сторон : 16:9
Режим частоты кадров : Постоянный
Частота кадров : 25,000 кадров/сек
Цветовое пространство : YUV
Субдискретизация насыщенности : 4:2:0
Битовая глубина : 8 бит
Тип развёртки : Прогрессивная
Бит/(Пиксели*Кадры) : 0.208
Размер потока : 538 Мбайт (87%)
Библиотека кодирования : x264 core 146 r2538 121396c
Настройки программы : cabac=1 / ref=12 / deblock=1:-2:-2 / analyse=0x3:0x133 / me=umh / subme=9 / psy=1 / psy_rd=1.00:0.15 / mixed_ref=0 / me_range=24 / chroma_me=1 / trellis=2 / 8x8dct=1 / cqm=0 / deadzone=21,11 / fast_pskip=0 / chroma_qp_offset=-3 / threads=10 / lookahead_threads=5 / sliced_threads=0 / nr=0 / decimate=0 / interlaced=0 / bluray_compat=0 / constrained_intra=0 / bframes=12 / b_pyramid=2 / b_adapt=2 / b_bias=0 / direct=3 / weightb=1 / open_gop=0 / weightp=2 / keyint=250 / keyint_min=25 / scenecut=40 / intra_refresh=0 / rc_lookahead=40 / rc=2pass / mbtree=1 / bitrate=1500 / ratetol=1.0 / qcomp=0.60 / qpmin=0 / qpmax=60 / qpstep=4 / cplxblur=20.0 / qblur=0.5 / ip_ratio=1.40 / aq=1:1.00
Default : Да
Forced : Нет
Цветовой диапазон : Limited
Основные цвета : BT.601 PAL
Характеристики трансфера : BT.470 System B/G
Коэффициенты матрицы : BT.470 System B/G
Duration_Source : General_Duration

Аудио
Идентификатор : 2
Формат : AC-3
Формат/Информация : Audio Coding 3
Коммерческое название : Dolby Digital
Идентификатор кодека : A_AC3
Продолжительность : 51 м. 11 с.
Вид битрейта : Постоянный
Битрейт : 192 Кбит/сек
Каналы : 2 канала
Channel layout : L R
Частота : 48,0 КГц
Частота кадров : 31,250 кадров/сек (1536 SPF)
Метод сжатия : С потерями
Размер потока : 70,3 Мбайт (11%)
Service kind : Complete Main
Default : Да
Forced : Нет
Duration_Source : General_Duration













   Похожие торренты   Торрент   Размер 
В этой теме нет новых непрочитанных сообщений. Катя и Блэк (1-8 серии из 8) (Гузэль Киреева) [2018, детектив, SATRip-AVC]

113 | 61

4.87 ГБ

В этой теме нет новых непрочитанных сообщений. Катя и Блэк (1-2 серии из 8) (Гузэль Киреева) [2018, детектив, SATRip-AVC]

23 | 10

1.22 ГБ

В этой теме нет новых непрочитанных сообщений. Катя и Блэк (1-4 серии из 8) (Гузэль Киреева) [2018, детектив, SATRip-AVC]

34 | 29

2.43 ГБ

В этой теме нет новых непрочитанных сообщений. Катя и Блэк (1-8 серии из 8) (Гузэль Киреева) [2018, детектив, HDTVRip-AVC]

50 | 20

6.31 ГБ

В этой теме нет новых непрочитанных сообщений. Катя и Блэк (1-2 серии из 8) (Гузэль Киреева) [2018, детектив, HDTVRip-AVC]

10 | 10

1.57 ГБ

В этой теме нет новых непрочитанных сообщений. Катя и Блэк (1-4 серии из 8) (Гузэль Киреева) [2018, детектив, HDTVRip-AVC]

21 | 3

3.15 ГБ

В этой теме нет новых непрочитанных сообщений. Катя и Блэк (1-6 серии из 8) (Гузэль Киреева) [2018, детектив, HDTVRip-AVC]

0 | 0

4.73 ГБ




Вы не можете начинать темы
Вы не можете отвечать на сообщения
Вы не можете редактировать свои сообщения
Вы не можете удалять свои сообщения
Вы не можете добавлять вложения

Перейти:  
Контактная информация: rstracker[пёсик]yandex.ru
 Вход
ppkBB3cker v.2 © 2008-2014 @ PPK
[ Time : 0.029s | 18 Queries | GZIP : Off ]

cron