img image001 image001 image001 image001 image001 image001 image001 image001 image001 image001 image001 image001 image001 image001 image001

Planets Sun Sun Sun

COVID-19 - Последняя информация о коронавирусе на сайте Минздрава


Статистика раздачи
Автор: Снежана | Размер: 417.42 МБ | Добавлен: 20 май 2020
Раздают: 4    Качают: 0


Скачать торрент
Скачать торрент
Описание торрента

СообщениеДобавлено: 20 май 2020 

Когда наступит завтра (1- серии)

Перевод: Не требуется, cубтитры: отсутствуют
Формат: WEB-DLRip-AVC, MKV, H.264, AC3
Страна: Россия
Режиссер: Сергей Чистяков
Жанр: драма
Всего серий: ?
Продолжительность: 1 x ~ 00:35:00
Год выпуска: 2020

В ролях: Евгений Антонов, Наталия Варфоломеева, Андрей Марусин, Анастасия Подосинникова

Описание: Коронавирус появился неожиданно и за считанные дни перевернул мир, внес необратимые изменения в наш быт. Сериал «Когда наступит завтра» состоит из нескольких историй, герои которых оказываются на грани и не знают, что принесет им следующий день.

Рейтинг и доп. информация: Нет

Видео: 1024x576, (16:9), 25 fps, AVC MPEG-4 (x264), ~ 1600 kbps , 0.109 bit/pixel
Аудио: 48 kHz, AC3, 2/0 (L,R) ch, ~192.00 kbps avg
Внимание! Раздача ведётся путём добавления новых серий. При каждом добавлении создаётся новый торрент.
Чтобы начать докачку новой серии, пользователям необходимо сделать следующее:
1. Остановить скачивание.
2. Удалить старый торрент у себя из клиента (старые серии удалять не надо).
3. Скачать новый торрент и запустить его у себя в клиенте вместо старого, при этом указать клиенту путь в старую папку куда и должно происходить скачивание новых серий. Ваш клиент при этом должен произвести хеширование (проверку) старой папки и будет докачивать только те серии, которых у вас ещё нет. Старые серии при этом не удаляются, а продолжают раздаваться! Eсли вы уже удалили старые серии, то предотвратить повторную закачку старых серий можно, отжав галочку в соответствующих местах при запуске нового торрента.


Общее
Уникальный идентификатор : 209720323664863022939313457660266957614 (0x9DC6AA45E9809F05B3F33DD728E24B2E)
Полное имя : C:\Когда наступит завтра.(2020).WEB-DLRip.(AVC).Files-x\01.Kogda.nastupit.zavtra.(2020).WEB-DLRip.(AVC).by.Серый1779.Files-x.mkv
Формат : Matroska
Версия формата : Version 2
Размер файла : 417 Мбайт
Продолжительность : 32 м. 32 с.
Общий поток : 1 794 Кбит/сек
Дата кодирования : UTC 2020-05-20 15:12:43
Программа кодирования : mkvmerge v7.8.0 (''River Man'') 32bit built on Apr 3 2015 12:11:22
Библиотека кодирования : libebml v1.3.1 + libmatroska v1.4.2

Видео
Идентификатор : 1
Формат : AVC
Формат/Информация : Advanced Video Codec
Профиль формата :
Настройки формата : CABAC / 9 Ref Frames
Параметр CABAC формата : Да
Параметр RefFrames формата : 9 кадров
Идентификатор кодека : V_MPEG4/ISO/AVC
Продолжительность : 32 м. 32 с.
Битрейт : 1 600 Кбит/сек
Ширина : 1 024 пикселя
Высота : 576 пикселей
Соотношение сторон : 16:9
Режим частоты кадров : Постоянный
Частота кадров : 25,000 кадров/сек
Цветовое пространство : YUV
Субдискретизация насыщенности : 4:2:0
Битовая глубина : 8 бит
Тип развёртки : Прогрессивная
Бит/(Пиксели*Кадры) : 0.109
Размер потока : 364 Мбайт (87%)
Библиотека кодирования : x264 core 146 r2538 121396c
Настройки программы : cabac=1 / ref=9 / deblock=1:-2:-1 / analyse=0x3:0x133 / me=umh / subme=9 / psy=1 / psy_rd=1.00:0.15 / mixed_ref=1 / me_range=32 / chroma_me=1 / trellis=2 / 8x8dct=1 / cqm=0 / deadzone=21,11 / fast_pskip=0 / chroma_qp_offset=-3 / threads=18 / lookahead_threads=3 / sliced_threads=0 / nr=0 / decimate=1 / interlaced=0 / bluray_compat=0 / constrained_intra=0 / bframes=9 / b_pyramid=2 / b_adapt=2 / b_bias=0 / direct=1 / weightb=1 / open_gop=0 / weightp=2 / keyint=250 / keyint_min=25 / scenecut=40 / intra_refresh=0 / rc=2pass / mbtree=0 / bitrate=1600 / ratetol=1.0 / qcomp=0.60 / qpmin=0 / qpmax=69 / qpstep=4 / cplxblur=20.0 / qblur=0.5 / ip_ratio=1.40 / pb_ratio=1.30 / aq=2:1.00
Default : Да
Forced : Нет
Цветовой диапазон : Limited
Основные цвета : BT.709
Характеристики трансфера : BT.709
Коэффициенты матрицы : BT.709
Duration_Source : General_Duration

Аудио
Идентификатор : 2
Формат : AC-3
Формат/Информация : Audio Coding 3
Коммерческое название : Dolby Digital
Идентификатор кодека : A_AC3
Продолжительность : 32 м. 32 с.
Вид битрейта : Постоянный
Битрейт : 192 Кбит/сек
Каналы : 2 канала
Channel layout : L R
Частота : 48,0 КГц
Частота кадров : 31,250 кадров/сек (1536 SPF)
Метод сжатия : С потерями
Размер потока : 44,7 Мбайт (11%)
Service kind : Complete Main
Default : Да
Forced : Нет
Duration_Source : General_Duration









   Похожие торренты   Торрент   Размер 
В этой теме нет новых непрочитанных сообщений. Когда наступит завтра (1-3 серии) (Сергей Чистяков) [2020, драма, WEB-DLRip-AVC]

15 | 16

1.23 ГБ

В этой теме нет новых непрочитанных сообщений. Когда наступит завтра (1-2 серии) (Сергей Чистяков) [2020, драма, WEB-DLRip-AVC]

0 | 0

822.12 МБ

В этой теме нет новых непрочитанных сообщений. Когда наступит завтра (1-3 серии) (Сергей Чистяков) [2020, драма, WEB-DLRip]

8 | 1

1.23 ГБ

В этой теме нет новых непрочитанных сообщений. Когда наступит завтра (1- серии) (Сергей Чистяков) [2020, драма, WEB-DLRip]

8 | 1

419.24 МБ

В этой теме нет новых непрочитанных сообщений. Когда наступит завтра (1-2 серии) (Сергей Чистяков) [2020, драма, WEB-DLRip]

20 | 0

825.74 МБ

В этой теме нет новых непрочитанных сообщений. Когда наступит завтра (1-3 серии) (Сергей Чистяков) [2020, драма, WEB-DL 1080p]

0 | 0

3.63 ГБ

В этой теме нет новых непрочитанных сообщений. Когда наступит завтра (1-2 серии) (Сергей Чистяков) [2020, драма, WEB-DL 1080p]

4 | 0

2.38 ГБ




Вы не можете начинать темы
Вы не можете отвечать на сообщения
Вы не можете редактировать свои сообщения
Вы не можете удалять свои сообщения
Вы не можете добавлять вложения

Перейти:  
Контактная информация: rstracker[пёсик]yandex.ru
cron
 Вход
ppkBB3cker v.2 © 2008-2014 @ PPK
[ Time : 0.039s | 16 Queries | GZIP : Off ]

cron