img image001 image001 image001 image001 image001 image001 image001 image001 image001 image001 image001 image001 image001 image001 image001

Planets Sun Sun Sun

COVID-19 - Последняя информация о коронавирусе на сайте Минздрава


Статистика раздачи
Автор: Снежана | Размер: 6.2 ГБ | Добавлен: 22 май 2020
Раздают: 0    Качают: 0


Скачать торрент
Скачать торрент
Описание торрента

СообщениеДобавлено: 22 май 2020 

ИП Пирогова (3 сезон 1-12 серии из 13)

Перевод: Не требуется, cубтитры: отсутствуют
Формат: WEBRip 720p, MKV, H.264, AC3
Страна: Россия
Режиссер: Акаки Сахелашвили
Жанр: комедия, драма, мелодрама
Всего серий: 13
Продолжительность: 12 х ~ 00:27:00
Год выпуска: 2020

В ролях: Елена Подкаминская, Настасья Кербенген, Данила Дунаев, Александр Панкратов-Чёрный, Александр Константинов, Ксения Теплова, Елена Валюшкина, Дмитрий Лысенков, Алексей Агранович

Описание: С тех пор, как Вера Пирогова подписала контракт с сетью ресторанов «Бальзак Гурмэ», про-шло полгода. Ее кондитерская, наконец, стала приносить хороший доход, однако строгий контроль в лице владельца сети Дениса Алексеевича не дает Вере расслабиться ни на минуту. К тому же, помощников на кухне стало меньше: сестра Саша готовится стать мамой, ча-стенько злоупотребляя своим интересным положением, дочь Юля с головой окунулась в студенческую жизнь, а неутомимый папа Виктор Павлович каждый день находит новые приключения. Личная жизнь самой Веры по-прежнему оставляет желать лучшего. Запутанные отношения с Андреем осложняются с появлением Дениса, который, оказывается, совсем не равнодушен к Вере.

Рейтинг и доп. информация:


Видео: 1280х720, (16:9), 25 fps, AVC MPEG-4 (x264), ~ 3000 kbps , 0.126 bit/pixel
Аудио: 48 kHz, АС3, 2/0 (L,R), ~192.00 kbps avg
Внимание! Раздача ведётся путём добавления новых серий. При каждом добавлении создаётся новый торрент.
Чтобы начать докачку новой серии, пользователям необходимо сделать следующее:
1. Остановить скачивание.
2. Удалить старый торрент у себя из клиента (старые серии удалять не надо).
3. Скачать новый торрент и запустить его у себя в клиенте вместо старого, при этом указать клиенту путь в старую папку куда и должно происходить скачивание новых серий. Ваш клиент при этом должен произвести хеширование (проверку) старой папки и будет докачивать только те серии, которых у вас ещё нет. Старые серии при этом не удаляются, а продолжают раздаваться! Eсли вы уже удалили старые серии, то предотвратить повторную закачку старых серий можно, отжав галочку в соответствующих местах при запуске нового торрента.


Реклама, любого вида, отсутствует.

Общее
Уникальный идентификатор : 178031919874866872593181934184456047441 (0x85EFB3578813EBFA862D3B5EC6A4CB51)
Полное имя : C:\IP.Pirogova.s03.(2020).WEB-DL.720p.ExKinoRay\IP.Pirogova.s03.e01.(2020).WEB-DL.720p.ExKinoRay.mkv
Формат : Matroska
Версия формата : Version 2
Размер файла : 564 Мбайт
Продолжительность : 24 м. 57 с.
Режим общего битрейта : Переменный
Общий поток : 3 160 Кбит/сек
Дата кодирования : UTC 2020-04-25 23:56:30
Программа кодирования : mkvmerge v5.8.0 (''No Sleep / Pillow'') built on Sep 2 2012 15:37:04
Библиотека кодирования : libebml v1.2.3 + libmatroska v1.3.0

Видео
Идентификатор : 1
Формат : AVC
Формат/Информация : Advanced Video Codec
Профиль формата :
Настройки формата : CABAC / 1 Ref Frames
Параметр CABAC формата : Да
Параметр RefFrames формата : 1 кадр
Параметр GOP формата : M=1, N=50
Идентификатор кодека : V_MPEG4/ISO/AVC
Продолжительность : 24 м. 57 с.
Вид битрейта : Переменный
Битрейт : 2 906 Кбит/сек
Максимальный битрейт : 3 000 Кбит/сек
Ширина : 1 280 пикселей
Высота : 720 пикселей
Соотношение сторон : 16:9
Режим частоты кадров : Постоянный
Частота кадров : 25,000 кадров/сек
Цветовое пространство : YUV
Субдискретизация насыщенности : 4:2:0
Битовая глубина : 8 бит
Тип развёртки : Прогрессивная
Бит/(Пиксели*Кадры) : 0.126
Размер потока : 519 Мбайт (92%)
Язык : Russian
Default : Да
Forced : Нет
Duration_Source : General_Duration

Аудио
Идентификатор : 2
Формат : AC-3
Формат/Информация : Audio Coding 3
Коммерческое название : Dolby Digital
Идентификатор кодека : A_AC3
Продолжительность : 24 м. 57 с.
Вид битрейта : Постоянный
Битрейт : 192 Кбит/сек
Каналы : 2 канала
Channel layout : L R
Частота : 48,0 КГц
Частота кадров : 31,250 кадров/сек (1536 SPF)
Метод сжатия : С потерями
Размер потока : 34,3 Мбайт (6%)
Язык : Russian
Service kind : Complete Main
Default : Да
Forced : Нет
Duration_Source : General_Duration









   Похожие торренты   Торрент   Размер 
В этой теме нет новых непрочитанных сообщений. ИП Пирогова (3 сезон 1-4 серии из 13) (Акаки Сахелашвили) [2020, комедия, драма, мелодрама, WEBRip 720p]

0 | 0

2.12 ГБ

В этой теме нет новых непрочитанных сообщений. ИП Пирогова (3 сезон 1-6 серии из 13) (Акаки Сахелашвили) [2020, комедия, драма, мелодрама, WEBRip 720p]

0 | 0

3.09 ГБ

В этой теме нет новых непрочитанных сообщений. ИП Пирогова (3 сезон 1-13 серии из 13) (Акаки Сахелашвили) [2020, комедия, драма, мелодрама, WEBRip 720p]

53 | 65

6.72 ГБ

В этой теме нет новых непрочитанных сообщений. ИП Пирогова (3 сезон 1-2 серии из 13) (Акаки Сахелашвили) [2020, комедия, драма, мелодрама, WEBRip 720p]

3 | 1

1.08 ГБ

В этой теме нет новых непрочитанных сообщений. ИП Пирогова (3 сезон 1-11 серии из 13) (Акаки Сахелашвили) [2020, комедия, драма, мелодрама, WEBRip 720p]

0 | 0

5.66 ГБ

В этой теме нет новых непрочитанных сообщений. ИП Пирогова (3 сезон 1-10 серии из 13) (Акаки Сахелашвили) [2020, комедия, драма, мелодрама, WEBRip 720p]

0 | 0

5.16 ГБ

В этой теме нет новых непрочитанных сообщений. ИП Пирогова (3 сезон 1-12 серии из 13) (Акаки Сахелашвили) [2020, комедия, драма, мелодрама, WEBRip]

0 | 0

3.53 ГБ




Вы не можете начинать темы
Вы не можете отвечать на сообщения
Вы не можете редактировать свои сообщения
Вы не можете удалять свои сообщения
Вы не можете добавлять вложения

Перейти:  
Контактная информация: rstracker[пёсик]yandex.ru
 Вход
ppkBB3cker v.2 © 2008-2014 @ PPK
[ Time : 0.033s | 16 Queries | GZIP : Off ]

cron