img image001 image001 image001 image001 image001 image001 image001 image001 image001 image001 image001 image001 image001 image001 image001

Planets Sun Sun Sun

COVID-19 - Последняя информация о коронавирусе на сайте Минздрава


Статистика раздачи
Автор: Снежана | Размер: 8.9 ГБ | Добавлен: 22 май 2020
Раздают: 37    Качают: 62


Скачать торрент
Скачать торрент
Описание торрента

СообщениеДобавлено: 22 май 2020 

Мир! Дружба! Жвачка! (1-6 серии из 8)

Перевод: Не требуется, cубтитры: отсутствуют
Формат: WEBRip 1080p, MKV, H.264, AC3
Страна: Россия
Режиссер: Илья Аксенов
Жанр: комедия, драма, мелодрама
Всего серий: 8
Продолжительность: 6 x ~ 00:50:00
Год выпуска: 2020

В ролях: Егор Губарев, Егор Абрамов, Фёдор Рощин, Валентина Ляпина, Юрий Борисов (II), Ксения Каталымова, Степан Девонин, Сергей Стёпин, Андрей Харыбин, Илья Чуканов, Инна Будникова, Зураб Кипшидзе, Марина бауэр, Евгений Харламов, дарья Гущина, Артур Бесчастный, Никита Павленко, Филипп Дьячков, Владимир Тимофеев, Сергей Тишин, Виктория Пархоменко, Надежда Игошина, Евгений Харитонов, Сергей Брежнев, Николай Колтышев, Геннадий Шершаков, Владимир Дубинин, Илья Козлов, инна Точилина, Антон Юрьев, Елизавета Лотова, Эльдениз Сафаров, Муталлим Османов, Наталья Жернакова, Елена Симонова, Лев Малишава, Ангелина Стречина, Аскар Нигамедзянов, Екатерина Дегтярёва (II, Тамир Сикоев, Надежда Иванова, Александр Никольский (II)), Максим Лебедев, Кристина Маранды

Описание: 1993 год. 14-летний Санька Рябинин живет обычной подростковой жизнью – ищет приключений, пытается защититься от районных хулиганов, не хочет ходить в музыкалку, не знает, как общаться с девчонками и с кого из взрослых брать пример. С одной стороны – честная, но бедная семья с мамой-продавщицей и папой-доцентом, с другой – опасный мир афганского ветерана дяди Алика, которого сыграл Юрий Борисов. А тут еще и девочка Женя, знакомство с которой запускает череду необратимых событий, которые навсегда изменят жизнь Саньки, его семьи и друзей Вовки и Илюши. Сбегая от хулиганов, Санька угоняет машину местного криминального авторитета, и в один миг все меняется. А дальше - разборки со взрослыми кавказцами, ровесниками, между родителями на кухне, со своими пацанами и так далее. Сможет ли он справиться со всеми проблемами, оказавшись в самом сердце событий? Удастся ли ему спасти семью и понять, наконец, – кто он? Понятно только одно – жизнь уже не будет такой как прежде. Ни для самого Саньки, ни для всей России.
«Тем, кто вырос в 90-е»

Рейтинг и доп. информация:


Видео: 1920x800, (2,40:1), 25 fps, AVC MPEG-4 (x264), High@L4 ~ 4500 kbps , 0.117 bit/pixel
Аудио: 48 kHz, АС3, 2/0 (L,R), ~192.00 kbps avg
Внимание! Раздача ведётся путём добавления новых серий. При каждом добавлении создаётся новый торрент.
Чтобы начать докачку новой серии, пользователям необходимо сделать следующее:
1. Остановить скачивание.
2. Удалить старый торрент у себя из клиента (старые серии удалять не надо).
3. Скачать новый торрент и запустить его у себя в клиенте вместо старого, при этом указать клиенту путь в старую папку куда и должно происходить скачивание новых серий. Ваш клиент при этом должен произвести хеширование (проверку) старой папки и будет докачивать только те серии, которых у вас ещё нет. Старые серии при этом не удаляются, а продолжают раздаваться! Eсли вы уже удалили старые серии, то предотвратить повторную закачку старых серий можно, отжав галочку в соответствующих местах при запуске нового торрента.


Версия 18+. ВНИМАНИЕ! Присутствует ненормативная лексика.

Общее
Уникальный идентификатор : 211779381052569861776876467409581030704 (0x9F5339A3E88DCD16A15AD9517D88BD30)
Полное имя : C:\Mir.druzba.zvacka.2020.WEB-DL.(1080p).Getty\Mir.druzba.zvacka.e01.2020.WEB-DL.(1080p).Getty.mkv
Формат : Matroska
Версия формата : Version 4
Размер файла : 1,62 Гбайт
Продолжительность : 49 м. 42 с.
Режим общего битрейта : Переменный
Общий поток : 4 653 Кбит/сек
Название фильма : Mir.druzba.zvacka.e01.2020.WEB-DL.(1080p).Getty
Дата кодирования : UTC 2020-04-22 21:06:44
Программа кодирования : mkvmerge v7.8.0 (''River Man'') 32bit built on Mar 27 2015 16:18:02
Библиотека кодирования : libebml v1.3.1 + libmatroska v1.4.2

Видео
Идентификатор : 1
Формат : AVC
Формат/Информация : Advanced Video Codec
Профиль формата : High@L4
Настройки формата : CABAC / 1 Ref Frames
Параметр CABAC формата : Да
Параметр RefFrames формата : 1 кадр
Параметр GOP формата : M=1, N=50
Идентификатор кодека : V_MPEG4/ISO/AVC
Продолжительность : 49 м. 42 с.
Вид битрейта : Переменный
Битрейт : 4 500 Кбит/сек
Ширина : 1 920 пикселей
Высота : 800 пикселей
Соотношение сторон : 2,40:1
Режим частоты кадров : Постоянный
Частота кадров : 25,000 кадров/сек
Цветовое пространство : YUV
Субдискретизация насыщенности : 4:2:0
Битовая глубина : 8 бит
Тип развёртки : Прогрессивная
Бит/(Пиксели*Кадры) : 0.117
Размер потока : 1,55 Гбайт (96%)
Default : Да
Forced : Нет

Аудио
Идентификатор : 2
Формат : AC-3
Формат/Информация : Audio Coding 3
Коммерческое название : Dolby Digital
Идентификатор кодека : A_AC3
Продолжительность : 49 м. 42 с.
Вид битрейта : Постоянный
Битрейт : 192 Кбит/сек
Каналы : 2 канала
Channel layout : L R
Частота : 48,0 КГц
Частота кадров : 31,250 кадров/сек (1536 SPF)
Метод сжатия : С потерями
Размер потока : 68,3 Мбайт (4%)
Service kind : Complete Main
Default : Да
Forced : Нет









   Похожие торренты   Торрент   Размер 
В этой теме нет новых непрочитанных сообщений. Мир! Дружба! Жвачка! (1-4 серии из 8) (Илья Аксенов) [2020, комедия, драма, мелодрама, WEBRip 1080p]

29 | 27

5.82 ГБ

В этой теме нет новых непрочитанных сообщений. Мир! Дружба! Жвачка! (1-5 серии из 8) (Илья Аксенов) [2020, комедия, драма, мелодрама, WEBRip 1080p]

88 | 147

7.44 ГБ

В этой теме нет новых непрочитанных сообщений. Мир! Дружба! Жвачка! (1-3 серии из 8) (Илья Аксенов) [2020, комедия, драма, мелодрама, WEBRip 1080p]

82 | 79

4.4 ГБ

В этой теме нет новых непрочитанных сообщений. Мир! Дружба! Жвачка! (1-2 серии из 8) (Илья Аксенов) [2020, комедия, драма, мелодрама, WEBRip 1080p]

29 | 5

2.97 ГБ

В этой теме нет новых непрочитанных сообщений. Мир! Дружба! Жвачка! (1-7 серии из 8) (Илья Аксенов) [2020, комедия, драма, мелодрама, WEBRip 1080p]

23 | 236

10.37 ГБ

В этой теме нет новых непрочитанных сообщений. Мир! Дружба! Жвачка! (1-8 серии из 8 + Фильм о сериале) (Илья Аксенов) [2020, комедия, драма, мелодрама, WEBRip 1080p]

33 | 248

13.29 ГБ

В этой теме нет новых непрочитанных сообщений. Мир! Дружба! Жвачка! (1-5 серии из 8) (Илья Аксенов) [2020, комедия, драма, мелодрама, WEBRip]

20 | 40

2.88 ГБ




Вы не можете начинать темы
Вы не можете отвечать на сообщения
Вы не можете редактировать свои сообщения
Вы не можете удалять свои сообщения
Вы не можете добавлять вложения

Перейти:  
Контактная информация: rstracker[пёсик]yandex.ru
 Вход
ppkBB3cker v.2 © 2008-2014 @ PPK
[ Time : 0.023s | 17 Queries | GZIP : Off ]

cron