img image001 image001 image001 image001 image001 image001 image001 image001 image001 image001 image001 image001 image001 image001 image001

Planets Sun Sun Sun

COVID-19 - Последняя информация о коронавирусе на сайте Минздрава


Статистика раздачи
Автор: Снежана | Размер: 2.88 ГБ | Добавлен: 22 май 2020
Раздают: 19    Качают: 11


Скачать торрент
Скачать торрент
Описание торрента

СообщениеДобавлено: 22 май 2020 

Безопасные связи (1-8 серии из 8)

Перевод: Не требуется, cубтитры: отсутствуют
Формат: WEBRip-AVC, MKV, H.264, AC3
Страна: Россия
Режиссер: Константин Богомолов
Жанр: драма
Всего серий: 8
Продолжительность: 8 x ~ 00:25:00
Год выпуска: 2020

В ролях: Любовь Аксёнова, Игорь Миркурбанов, Мария Шумакова, Никита Ефремов, Александра Ребенок, Леонид Бичевин, Надежда Маркина, Сергей Сосновский, Дмитрий Куличков

Описание: Три истории отношений, три жанра. Маша (Мария Шумакова) и Коля (Никита Ефремов) – любовники, застрявшие в самоизоляции со своими законными супругами (Леонид Бичевин и Александра Ребенок). Пары дружат семьями, и бесконечная ложь пропитывает их звонки друг другу, создавая массу комических и драматических ситуаций. Анна (Надежда Маркина) живет одна, и звонки Виктора (Сергей Сосновский) ей, похоже, не очень приятны. Но она все равно отвечает на них и почему-то не прерывает разговор с давним знакомым, в отношениях с которым есть какая-то тайна из прошлого. Девушка (Любовь Аксенова) ищет в интернете работу и получает странное предложение от мужчины, по возрасту годящегося ей в отцы (Игорь Миркурбанов).

Рейтинг и доп. информация:


Видео: 1024x576, (16:9), 25 fps, AVC MPEG-4 (x264), ~ 1600 kbps , 0.109 bit/pixel
Аудио: 48 kHz, АС3, 2/0 (L,R), ~192.00 kbps avg
Общее
Уникальный идентификатор : 222544442744539268083381199332090966063 (0xA76C8028E2C42FE992FDC710E9D1F02F)
Полное имя : C:\Безопасные связи.(2020).WEBRip.(AVC).Files-x\01.Bezopasnye.svyazi.(2020).WEBRip.(AVC).by.Серый1779.Files-x.mkv
Формат : Matroska
Версия формата : Version 2
Размер файла : 345 Мбайт
Продолжительность : 26 м. 53 с.
Общий поток : 1 793 Кбит/сек
Дата кодирования : UTC 2020-04-26 20:26:42
Программа кодирования : mkvmerge v7.8.0 (''River Man'') 32bit built on Apr 3 2015 12:11:22
Библиотека кодирования : libebml v1.3.1 + libmatroska v1.4.2

Видео
Идентификатор : 1
Формат : AVC
Формат/Информация : Advanced Video Codec
Профиль формата :
Настройки формата : CABAC / 9 Ref Frames
Параметр CABAC формата : Да
Параметр RefFrames формата : 9 кадров
Идентификатор кодека : V_MPEG4/ISO/AVC
Продолжительность : 26 м. 53 с.
Битрейт : 1 600 Кбит/сек
Ширина : 1 024 пикселя
Высота : 576 пикселей
Соотношение сторон : 16:9
Режим частоты кадров : Постоянный
Частота кадров : 25,000 кадров/сек
Цветовое пространство : YUV
Субдискретизация насыщенности : 4:2:0
Битовая глубина : 8 бит
Тип развёртки : Прогрессивная
Бит/(Пиксели*Кадры) : 0.109
Размер потока : 301 Мбайт (87%)
Библиотека кодирования : x264 core 146 r2538 121396c
Настройки программы : cabac=1 / ref=9 / deblock=1:-2:-1 / analyse=0x3:0x133 / me=umh / subme=9 / psy=1 / psy_rd=1.00:0.15 / mixed_ref=1 / me_range=32 / chroma_me=1 / trellis=2 / 8x8dct=1 / cqm=0 / deadzone=21,11 / fast_pskip=0 / chroma_qp_offset=-3 / threads=18 / lookahead_threads=3 / sliced_threads=0 / nr=0 / decimate=1 / interlaced=0 / bluray_compat=0 / constrained_intra=0 / bframes=9 / b_pyramid=2 / b_adapt=2 / b_bias=0 / direct=1 / weightb=1 / open_gop=0 / weightp=2 / keyint=250 / keyint_min=25 / scenecut=40 / intra_refresh=0 / rc=2pass / mbtree=0 / bitrate=1600 / ratetol=1.0 / qcomp=0.60 / qpmin=0 / qpmax=69 / qpstep=4 / cplxblur=20.0 / qblur=0.5 / ip_ratio=1.40 / pb_ratio=1.30 / aq=2:1.00
Default : Да
Forced : Нет
Цветовой диапазон : Limited
Основные цвета : BT.709
Характеристики трансфера : BT.709
Коэффициенты матрицы : BT.709
Duration_Source : General_Duration

Аудио
Идентификатор : 2
Формат : AC-3
Формат/Информация : Audio Coding 3
Коммерческое название : Dolby Digital
Идентификатор кодека : A_AC3
Продолжительность : 26 м. 53 с.
Вид битрейта : Постоянный
Битрейт : 192 Кбит/сек
Каналы : 2 канала
Channel layout : L R
Частота : 48,0 КГц
Частота кадров : 31,250 кадров/сек (1536 SPF)
Метод сжатия : С потерями
Размер потока : 36,9 Мбайт (11%)
Service kind : Complete Main
Default : Да
Forced : Нет
Duration_Source : General_Duration













   Похожие торренты   Торрент   Размер 
В этой теме нет новых непрочитанных сообщений. Безопасные связи (1-4 серии из 8) (Константин Богомолов) [2020, драма, WEBRip-AVC]

0 | 0

1.39 ГБ

В этой теме нет новых непрочитанных сообщений. Безопасные связи (1- серии из 8) (Константин Богомолов) [2020, драма, WEBRip-AVC]

20 | 0

344.73 МБ

В этой теме нет новых непрочитанных сообщений. Безопасные связи (1-6 серии из 8) (Константин Богомолов) [2020, драма, WEBRip-AVC]

5 | 3

2.23 ГБ

В этой теме нет новых непрочитанных сообщений. Безопасные связи (1-2 серии из 8) (Константин Богомолов) [2020, драма, WEBRip-AVC]

0 | 0

707.88 МБ

В этой теме нет новых непрочитанных сообщений. Безопасные связи (1-3 серии из 8) (Константин Богомолов) [2020, драма, WEBRip-AVC]

23 | 3

1.03 ГБ

В этой теме нет новых непрочитанных сообщений. Безопасные связи (1-3 серии из 8) (Константин Богомолов) [2020, драма, WEBRip]

99 | 57

1.12 ГБ

В этой теме нет новых непрочитанных сообщений. Безопасные связи (1- серии из 8) (Константин Богомолов) [2020, драма, WEBRip]

11 | 0

377.34 МБ




Вы не можете начинать темы
Вы не можете отвечать на сообщения
Вы не можете редактировать свои сообщения
Вы не можете удалять свои сообщения
Вы не можете добавлять вложения

Перейти:  
Контактная информация: rstracker[пёсик]yandex.ru
 Вход
ppkBB3cker v.2 © 2008-2014 @ PPK
[ Time : 0.021s | 18 Queries | GZIP : Off ]

cron