img image001 image001 image001 image001 image001 image001 image001 image001 image001 image001 image001 image001 image001 image001 image001

Planets Sun Sun Sun

COVID-19 - Последняя информация о коронавирусе на сайте Минздрава


Статистика раздачи
Автор: Снежана | Размер: 3.62 ГБ | Добавлен: 22 май 2020
Раздают: 0    Качают: 0


Скачать торрент
Скачать торрент
Описание торрента

СообщениеДобавлено: 22 май 2020 

#CидЯдома (1-6 серии)

Перевод: Не требуется, cубтитры: отсутствуют
Формат: WEBRip 720p, MKV, H.264, AC3
Страна: Россия
Режиссер: Ольга Френкель
Жанр: комедия
Всего серий: ?
Продолжительность: 6 x ~ 00:20:00
Год выпуска: 2020

В ролях: Александр Робак, Гоша Куценко, Анна Михалкова, Борис Дергачев, Олеся Железняк, Юлия Александрова, Анна Котова-Дерябина, Михаил Кремер, Андрей Баков, Кирилл Кяро, Прохор Сумченко, Фома Сумченко

Описание: Скучно сидеть дома? Только не Геннадию Борисовичу (Александр Робак). В то время как весь мир поет песни с балконов и устраивает вечеринки по видеосвязи, владелец сети хозяйственных магазинов в Подольске пытается спасти свой бизнес. Холостой и пьющий бывший полковник ФСО, по совместительству начальник службы безопасности и логист Серёга Дергач (герой Гоши Куценко) окопался на даче с запасом алкоголя и поставляет противоречивые данные от своих сомнительных информаторов, чем наводит страх на коллег. Параллельно с этим жена Геннадия Борисовича (Юлия Александровна) не может (или не хочет?) уезжать с Бали и возвращаться домой. Бывшая жена в исполнении Анны Михалковой времени зря на карантине не теряет, чем даже немного расстраивает Геннадия Борисовича. Секретарша Юлечка (Анна Котова-Дерябина) собирается на возможно последний в ее жизни маникюр. Она очень расстроена тем, что ее тайный ухажер (Борис Дергачев) самоизолировался с семьей, хотя давно обещал развестись. К видеозвонку с коллегами он подключается сидя в шкафу. Потому что это единственное место в доме, где он может укрыться от жены и детей. Героиня Олеся Железняк вообще на грани нервного срыва: по ночам она слушает как дышат все члены ее семьи, а днем следит за удаленным обучением детей и температурой коллег. Жизнь кипит даже в четырех стенах.

Рейтинг и доп. информация:


Видео: 1280х720, (16:9), 25 fps, AVC MPEG-4 (x264), ~ 3000 kbps , 0.127 bit/pixel
Аудио: 48 kHz, AC3, 2/0 (L,R) ch, ~192 kbps
Внимание! Раздача ведётся путём добавления новых серий. При каждом добавлении создаётся новый торрент.
Чтобы начать докачку новой серии, пользователям необходимо сделать следующее:
1. Остановить скачивание.
2. Удалить старый торрент у себя из клиента (старые серии удалять не надо).
3. Скачать новый торрент и запустить его у себя в клиенте вместо старого, при этом указать клиенту путь в старую папку куда и должно происходить скачивание новых серий. Ваш клиент при этом должен произвести хеширование (проверку) старой папки и будет докачивать только те серии, которых у вас ещё нет. Старые серии при этом не удаляются, а продолжают раздаваться! Eсли вы уже удалили старые серии, то предотвратить повторную закачку старых серий можно, отжав галочку в соответствующих местах при запуске нового торрента.


Общее
Уникальный идентификатор : 184610114007088836932207177323764960656 (0x8AE29D5A609C04C19885D1E43F16CD90)
Полное имя : C:\CидЯдома.2020.WEB-DL 720p.Files-x\01. #CидЯдома.2020.WEB-DL 720p.Files-x.mkv
Формат : Matroska
Версия формата : Version 2
Размер файла : 455 Мбайт
Продолжительность : 20 м. 8 с.
Режим общего битрейта : Переменный
Общий поток : 3 156 Кбит/сек
Дата кодирования : UTC 2020-04-13 23:08:10
Программа кодирования : mkvmerge v7.8.0 (''River Man'') 32bit built on Apr 3 2015 12:11:22
Библиотека кодирования : libebml v1.3.1 + libmatroska v1.4.2

Видео
Идентификатор : 1
Формат : AVC
Формат/Информация : Advanced Video Codec
Профиль формата :
Настройки формата : CABAC / 1 Ref Frames
Параметр CABAC формата : Да
Параметр RefFrames формата : 1 кадр
Параметр GOP формата : M=1, N=50
Идентификатор кодека : V_MPEG4/ISO/AVC
Продолжительность : 20 м. 8 с.
Вид битрейта : Переменный
Битрейт : 2 902 Кбит/сек
Максимальный битрейт : 3 000 Кбит/сек
Ширина : 1 280 пикселей
Высота : 720 пикселей
Соотношение сторон : 16:9
Режим частоты кадров : Постоянный
Частота кадров : 25,000 кадров/сек
Цветовое пространство : YUV
Субдискретизация насыщенности : 4:2:0
Битовая глубина : 8 бит
Тип развёртки : Прогрессивная
Бит/(Пиксели*Кадры) : 0.126
Размер потока : 418 Мбайт (92%)
Default : Да
Forced : Нет
Duration_Source : General_Duration

Аудио
Идентификатор : 2
Формат : AC-3
Формат/Информация : Audio Coding 3
Коммерческое название : Dolby Digital
Идентификатор кодека : A_AC3
Продолжительность : 20 м. 8 с.
Вид битрейта : Постоянный
Битрейт : 192 Кбит/сек
Каналы : 2 канала
Channel layout : L R
Частота : 44,1 КГц
Частота кадров : 28,711 кадров/сек (1536 SPF)
Метод сжатия : С потерями
Размер потока : 27,6 Мбайт (6%)
Service kind : Complete Main
Default : Да
Forced : Нет
Duration_Source : General_Duration









   Похожие торренты   Торрент   Размер 
В этой теме нет новых непрочитанных сообщений. #CидЯдома (1-2 серии) (Ольга Френкель) [2020, комедия, WEBRip 720p]

40 | 25

1.04 ГБ

В этой теме нет новых непрочитанных сообщений. #CидЯдома (1-3 серии) (Ольга Френкель) [2020, комедия, WEBRip 720p]

40 | 39

1.7 ГБ

В этой теме нет новых непрочитанных сообщений. #CидЯдома (1-4 серии) (Ольга Френкель) [2020, комедия, WEBRip 720p]

55 | 85

2.3 ГБ

В этой теме нет новых непрочитанных сообщений. #CидЯдома (1-7 серии) (Ольга Френкель) [2020, комедия, WEBRip 720p]

0 | 0

4.24 ГБ

В этой теме нет новых непрочитанных сообщений. #CидЯдома (1- серии) (Ольга Френкель) [2020, комедия, WEBRip 720p]

25 | 0

454.55 МБ

В этой теме нет новых непрочитанных сообщений. #CидЯдома (1-5 серии) (Ольга Френкель) [2020, комедия, WEBRip 720p]

0 | 0

2.93 ГБ

В этой теме нет новых непрочитанных сообщений. #CидЯдома (1-2 серии) (Ольга Френкель) [2020, комедия, WEBRip]

44 | 35

609.62 МБ




Вы не можете начинать темы
Вы не можете отвечать на сообщения
Вы не можете редактировать свои сообщения
Вы не можете удалять свои сообщения
Вы не можете добавлять вложения

Перейти:  
Контактная информация: rstracker[пёсик]yandex.ru
 Вход
ppkBB3cker v.2 © 2008-2014 @ PPK
[ Time : 0.040s | 18 Queries | GZIP : Off ]

cron