img image001 image001 image001 image001 image001 image001 image001 image001 image001 image001 image001 image001 image001 image001 image001

Planets Sun Sun Sun

COVID-19 - Последняя информация о коронавирусе на сайте Минздрава


Статистика раздачи
Автор: Снежана | Размер: 17.33 ГБ | Добавлен: 22 май 2020
Раздают: 0    Качают: 0


Скачать торрент
Скачать торрент
Описание торрента

СообщениеДобавлено: 22 май 2020 

Адмиралы района (1-8 серии из 16)

Перевод: Не требуется, cубтитры: отсутствуют
Формат: WEBRip 1080p, MKV, H.264, AC3
Страна: Россия
Режиссер: Михаил Вассербаум, Сергей Полуянов (II)
Жанр: детектив, драма, криминал
Всего серий: 16
Продолжительность: 8 х ~ 00:50:19
Год выпуска: 2020

В ролях: Максим Дахненко, Эдуард Флёров, Евгений Никитин, Андрей Коровниченко, Денис Васильев, Ирина Вальц, Георгий Болонев, Заза Чантурия, Сергей Шоколов, Дмитрий Соловьёв (II), Глафира Козулина, Сергей Шкарбан, Руслан Китайгородский, Александр Мосолов, Алла Еминцева, Кирилл Иванов, Антон Сычёв, Алексей Шаблюк, Анастасия Евланова, Геннадий Свирь, Иван Васильев, Руслан Барабанов, Теона Гумберидзе, Анна Геллер, Николай Яковлев (III)

Описание: В крупном торговом центре бывший полковник МВД Игнатьев, ценой свой жизни, предотвращает теракт. Для ФСБ и особенно для друга погибшего - майора Андрея Девятова (Максим Дахненко), делом части становится раскрытие преступления, произошедшего в самом криминогенном районе города - Новоадмиралтейском. Девятов выходит на след предполагаемого исполнителя теракта, но во время погони за ним происходит ДТП, в которое попадает дочь авторитетного чиновника и бизнесмена Круглова (Алексей Фалилеев). Круглов добивается увольнения Девятова из ФСБ. Тем временем, руководство местного полицейского управления явно попустительствует и, очевидно, погрязло в коррупции. Чтобы доказать это генералу Рубцову (Евгений Никитин), необходимо собрать команду новых, не замешанных в коррупции, оперативников. Так появляются «адмиралы района». Бывший руководитель Девятова Старыгин (Андрей Коровниченко) способствует переводу своего подопечного в полицию на должность начальника Новоадмиралтейского УМВД. Так он становится одним из «адмиралов района» и продолжает разбираться в деле о теракте, правда теперь с другой стороны.

Рейтинг и доп. информация:


Видео: 1920х1080 (16:9), 25 fps, AVC MPEG-4 (x264), ~ 6000 kbps avg, 0.116 bit/pixel
Аудио: 48 kHz, АС3, 2/0 (L,R), ~192.00 kbps avg
Внимание! Раздача ведётся путём добавления новых серий. При каждом добавлении создаётся новый торрент.
Чтобы начать докачку новой серии, пользователям необходимо сделать следующее:
1. Остановить скачивание.
2. Удалить старый торрент у себя из клиента (старые серии удалять не надо).
3. Скачать новый торрент и запустить его у себя в клиенте вместо старого, при этом указать клиенту путь в старую папку куда и должно происходить скачивание новых серий. Ваш клиент при этом должен произвести хеширование (проверку) старой папки и будет докачивать только те серии, которых у вас ещё нет. Старые серии при этом не удаляются, а продолжают раздаваться! Eсли вы уже удалили старые серии, то предотвратить повторную закачку старых серий можно, отжав галочку в соответствующих местах при запуске нового торрента.


Общее
Уникальный идентификатор : 180696183183285785494168946412210674684 (0x87F0D1AA2CD86F2BA91DDF44667CDBFC)
Полное имя : C:Admiraly.rayona.2020.WEB-DL.(1080p).ExKinoRay\Admiraly.rayona.E01.2020.WEB-DL.(1080p).ExKinoRay.mkv
Формат : Matroska
Версия формата : Version 4
Размер файла : 2,17 Гбайт
Продолжительность : 50 м. 19 с.
Режим общего битрейта : Постоянный
Общий поток : 6 171 Кбит/сек
Дата кодирования : UTC 2020-05-18 19:20:19
Программа кодирования : mkvmerge v6.9.1 (''Blue Panther'') 64bit built on Apr 18 2014 18:23:38
Библиотека кодирования : libebml v1.3.0 + libmatroska v1.4.1

Видео
Идентификатор : 1
Формат : AVC
Формат/Информация : Advanced Video Codec
Профиль формата :
Настройки формата : 2 Ref Frames
Параметр CABAC формата : Нет
Параметр RefFrames формата : 2 кадра
Идентификатор кодека : V_MPEG4/ISO/AVC
Продолжительность : 50 м. 19 с.
Вид битрейта : Постоянный
Битрейт : 6 000 Кбит/сек
Ширина : 1 920 пикселей
Высота : 1 080 пикселей
Соотношение сторон : 16:9
Режим частоты кадров : Постоянный
Частота кадров : 25,000 кадров/сек
Стандарт вещания : PAL
Цветовое пространство : YUV
Субдискретизация насыщенности : 4:2:0
Битовая глубина : 8 бит
Тип развёртки : Прогрессивная
Бит/(Пиксели*Кадры) : 0.116
Размер потока : 2,06 Гбайт (95%)
Default : Да
Forced : Нет
Цветовой диапазон : Limited
Основные цвета : BT.709
Характеристики трансфера : BT.709
Коэффициенты матрицы : BT.709
Duration_Source : General_Duration

Аудио
Идентификатор : 2
Формат : AC-3
Формат/Информация : Audio Coding 3
Коммерческое название : Dolby Digital
Идентификатор кодека : A_AC3
Продолжительность : 50 м. 19 с.
Вид битрейта : Постоянный
Битрейт : 192 Кбит/сек
Каналы : 2 канала
Channel layout : L R
Частота : 48,0 КГц
Частота кадров : 31,250 кадров/сек (1536 SPF)
Метод сжатия : С потерями
Размер потока : 69,1 Мбайт (3%)
Язык : Russian
Service kind : Complete Main
Default : Да
Forced : Нет
Duration_Source : General_Duration









   Похожие торренты   Торрент   Размер 
В этой теме нет новых непрочитанных сообщений. Адмиралы района (1-2 серии из 16) (Михаил Вассербаум, Сергей Полуянов (II)) [2020, детектив, драма, криминал, WEBRip 1080p]

0 | 0

4.32 ГБ

В этой теме нет новых непрочитанных сообщений. Адмиралы района (1-4 серии из 16) (Михаил Вассербаум, Сергей Полуянов (II)) [2020, детектив, драма, криминал, WEBRip 1080p]

0 | 0

8.7 ГБ

В этой теме нет новых непрочитанных сообщений. Адмиралы района (1-16 серии из 16) (Михаил Вассербаум, Сергей Полуянов (II)) [2020, детектив, драма, криминал, WEBRip 1080p, HDTV 1080i]

0 | 0

34.44 ГБ

В этой теме нет новых непрочитанных сообщений. Адмиралы района (1-14 серии из 16) (Михаил Вассербаум, Сергей Полуянов (II)) [2020, детектив, драма, криминал, WEBRip 1080p, HDTV 1080i]

0 | 0

29.58 ГБ

В этой теме нет новых непрочитанных сообщений. Адмиралы района (1-12 серии из 16) (Михаил Вассербаум, Сергей Полуянов (II)) [2020, детектив, драма, криминал, WEBRip 1080p, HDTV 1080i]

4 | 9

25.69 ГБ

В этой теме нет новых непрочитанных сообщений. Адмиралы района (1-4 серии из 16) (Михаил Вассербаум, Сергей Полуянов (II)) [2020, детектив, драма, криминал, WEBRip]

16 | 12

2.54 ГБ

В этой теме нет новых непрочитанных сообщений. Адмиралы района (1-8 серии из 16) (Михаил Вассербаум, Сергей Полуянов (II)) [2020, детектив, драма, криминал, WEBRip]

53 | 54

5.05 ГБ




Вы не можете начинать темы
Вы не можете отвечать на сообщения
Вы не можете редактировать свои сообщения
Вы не можете удалять свои сообщения
Вы не можете добавлять вложения

Перейти:  
Контактная информация: rstracker[пёсик]yandex.ru
 Вход
ppkBB3cker v.2 © 2008-2014 @ PPK
[ Time : 0.023s | 15 Queries | GZIP : Off ]

cron