img image001 image001 image001 image001 image001 image001 image001 image001 image001 image001 image001 image001 image001 image001 image001

Planets Sun Sun Sun

COVID-19 - Последняя информация о коронавирусе на сайте Минздрава


Статистика раздачи
Автор: Снежана | Размер: 19.35 ГБ | Добавлен: 22 май 2020
Раздают: 0    Качают: 0


Скачать торрент
Скачать торрент
Описание торрента

СообщениеДобавлено: 22 май 2020 

Разбитое зеркало (1-8 серии из 8)

Перевод: Не требуется, cубтитры: отсутствуют
Формат: HDTV 1080i, MPEG-TS, H.264, MP3
Страна: Россия
Режиссер: Олег Фомин
Жанр: драма, мелодрама
Всего серий: 8
Продолжительность: 8 х ~ 00:45:00
Год выпуска: 2020

В ролях: Александр Лазарев (младший), Екатерина Гусева, Станислав Дужников, Алла Будницкая, Екатерина Волкова, Алексей Макаров, Владимир Гостюхин, Денис Нурулин, Мирослава Михайлова, Мария Селянская, Арина Постникова, Зоя Мансурова, Александр Головин, Сергей Лазарев (VII), Дарья Белодед, Арсений Робак, Валерия Волкова, Баин Бовальдинов, Евгений Гусев (II), Надежда Подъяпольская, Анатолий Голуб, Оксана Лесная, Владимир Хацкевич, Андрей Карако, Александр Тарасов (V), Максим Крут, Евгения Аникей, Владимир Гороховский, Дарья Карпеченкова, Инна Коляда

Описание: Когда в найденной спустя двадцать лет сумке почтальона обнаруживаются сохранившиеся письма, Даша узнает, что её любимый человек Олег, которого все считали погибшим, на самом деле, выжил. Если бы Даша получила это письмо вовремя, она бы не вышла замуж за нелюбимого и вся её жизнь сложилась бы иначе. Даша решает выяснить, что же на самом деле случилось много лет назад. Распутывая старые тайны, она узнает, что ее окружение – муж, лучшая подруга, даже родной брат – совсем не те, кем она их считала. Она должна найти Олега во чтобы то ни стало! Она верит, что ещё возможно что-то исправить…

Рейтинг и доп. информация:


Видео: 1920x1080, (16:9), 25 fps, AVC MPEG-TS (x264), High@L4 ~ 7100 kbps , 0.138 bit/pixel
Аудио: 48 kHz, MPEG Layer 2, 2 ch, ~192.00 kbps avg
Реклама отсутствует. Возможно наличие "всплывающих" надписей

Общее
Идентификатор : 1 (0x1)
Полное имя : C:\Razbitoe.zerkalo.2020.HDTV.1080i\Razbitoe.zerkalo.01.2020.HDTV.1080i.ts
Формат : MPEG-TS
Размер файла : 2,37 Гбайт
Продолжительность : 44 м. 19 с.
Режим общего битрейта : Переменный
Общий поток : 7 647 Кбит/сек

Видео
Идентификатор : 2911 (0xB5F)
Идентификатор меню : 1485 (0x5CD)
Формат : AVC
Формат/Информация : Advanced Video Codec
Профиль формата : High@L4
Настройки формата : CABAC / 4 Ref Frames
Параметр CABAC формата : Да
Параметр RefFrames формата : 4 кадра
Идентификатор кодека : 27
Продолжительность : 44 м. 19 с.
Битрейт : 7 100 Кбит/сек
Ширина : 1 920 пикселей
Высота : 1 080 пикселей
Соотношение сторон : 16:9
Частота кадров : 25,000 кадров/сек
Цветовое пространство : YUV
Субдискретизация насыщенности : 4:2:0
Битовая глубина : 8 бит
Тип развёртки : MBAFF
Метод сохранения типа развёртки : Чередующиеся поля
Порядок развёртки : Верхнее поле первое
Бит/(Пиксели*Кадры) : 0.136
Размер потока : 2,19 Гбайт (93%)

Аудио
Идентификатор : 2912 (0xB60)
Идентификатор меню : 1485 (0x5CD)
Формат : MPEG Audio
Версия формата : Version 1
Профиль формата : Layer 2
Идентификатор кодека : 3
Продолжительность : 44 м. 19 с.
Вид битрейта : Постоянный
Битрейт : 192 Кбит/сек
Каналы : 2 канала
Частота : 48,0 КГц
Частота кадров : 41,667 кадра/сек (1152 SPF)
Метод сжатия : С потерями
Задержка видео : -80 мс.
Размер потока : 60,9 Мбайт (3%)
Язык : Russian









   Похожие торренты   Торрент   Размер 
В этой теме нет новых непрочитанных сообщений. Разбитое зеркало (1-4 серии из 16) (Олег Фомин) [2020, драма, мелодрама, HDTVRip]

14 | 19

2.25 ГБ

В этой теме нет новых непрочитанных сообщений. Разбитое зеркало (1-8 серии из 8) (Олег Фомин) [2020, драма, мелодрама, HDTVRip]

233 | 97

4.56 ГБ

В этой теме нет новых непрочитанных сообщений. Разбитое зеркало (1-2 серии из 16) (Олег Фомин) [2020, драма, мелодрама, HDTVRip]

0 | 0

1.09 ГБ

В этой теме нет новых непрочитанных сообщений. Разбитое зеркало (1-6 серии из 16) (Олег Фомин) [2020, драма, мелодрама, SATRip]

40 | 23

3.51 ГБ

В этой теме нет новых непрочитанных сообщений. Разбитое зеркало (1-8 серии из 8) (Олег Фомин) [2020, драма, мелодрама, SATRip]

0 | 0

4.69 ГБ

В этой теме нет новых непрочитанных сообщений. Разбитое зеркало (1-2 серии из 16) (Олег Фомин) [2020, драма, мелодрама, SATRip]

0 | 0

1.17 ГБ

В этой теме нет новых непрочитанных сообщений. Разбитое зеркало (1-2 серии из 16) (Олег Фомин) [2020, драма, мелодрама, HDTVRip-AVC]

0 | 0

1.33 ГБ




Вы не можете начинать темы
Вы не можете отвечать на сообщения
Вы не можете редактировать свои сообщения
Вы не можете удалять свои сообщения
Вы не можете добавлять вложения

Перейти:  
Контактная информация: rstracker[пёсик]yandex.ru
 Вход
ppkBB3cker v.2 © 2008-2014 @ PPK
[ Time : 0.027s | 16 Queries | GZIP : Off ]

cron